Tamalyn Dallal - Elegant and Expressive Hands and Arms [2013, танец живота, WEBRip, ENG] (Видеоурок)


Статистика раздачи [Обновить пиров]
Размер:  926 MB   |    Зарегистрирован:  8 месяцев 17 дней   |    Скачан:  0 раз

Полного источника не было: Никогда

Личеров:  3  [  0 KB/s  ]   Подробная статистика пиров
 
   
 
 
 

[Цитировать]

Tamalyn Dallal - Elegant and Expressive Hands and Arms
Страна: USA
Тематика: танец живота
Тип раздаваемого материала: Видеоурок
Продолжительность: 01:37:20
Год выпуска: 2013
Язык: Английский
Перевод: Отсутствует
Описание: This workshop focuses on Tamalyn Dallal's signature hand and arm technique. In 6 parts, she will guide you through a multitude of elegant and expressive hand and arm techniques and combinations. This class features a short warm up, basic shapes and embellishments, variations on basic arm movements with layers, and hand and arms technique and movements from the silk road.
Этот мастер-класс фокусируется на замечательной технике кистей и рук от танцовщицы Тамалин Даллал. В шести частях, она проведет вас сквозь множество элегантных и экспрессивных техник и танцевальных связок. Этот класс состоит из небольшой разминки, базовых форм и дополнений, вариаций базовых движений с наложениями, а также здесь присутствуют техники движений рук из разных стран шелкового пути.
Media Info

скрытый текст

General
Format : AVI
Format/Info : Audio Video Interleave
File size : 926 MiB
Duration : 1h 37mn
Overall bit rate : 1 329 Kbps
Video
ID : 0
Format : MPEG-4 Visual
Format profile : Advanced Simple@L5
Format settings, BVOP : 2
Format settings, QPel : No
Format settings, GMC : No warppoints
Format settings, Matrix : Default (H.263)
Codec ID : XVID
Codec ID/Hint : XviD
Duration : 1h 37mn
Bit rate : 1 126 Kbps
Width : 720 pixels
Height : 400 pixels
Display aspect ratio : 16:9
Frame rate : 29.970 fps
Color space : YUV
Chroma subsampling : 4:2:0
Bit depth : 8 bits
Scan type : Progressive
Compression mode : Lossy
Bits/(Pixel*Frame) : 0.130
Stream size : 784 MiB (85%)
Writing library : XviD 64
Audio
ID : 1
Format : AC-3
Format/Info : Audio Coding 3
Mode extension : CM (complete main)
Codec ID : 2000
Duration : 1h 37mn
Source duration : 1h 37mn
Bit rate mode : Constant
Bit rate : 192 Kbps
Channel(s) : 2 channels
Channel positions : Front: L R
Sampling rate : 48.0 KHz
Bit depth : 16 bits
Compression mode : Lossy
Stream size : 134 MiB (14%)
Alignment : Aligned on interleaves
Interleave, duration : 33 ms (1.00 video frame)
Качество: WEBRip
Формат: AVI
Видео кодек: XviD
Аудио кодек: AC3
Видео: Xvid 720x400 29.97fps 1125kbps 16:9
Аудио: Dolby AC3 48000Hz stereo 192kbps 2ch

Скриншоты


Большое спасибо camususu за то, что поделилась этим замечательным видео!

Видео на похожую тему на трекере
Oriental Arms 1 with Katia http://teatrix.ru/viewtopic.php?t=1729919
Katia - Oriental Arms 2 http://teatrix.ru/viewtopic.php?t=2749125
Fahtiem - Beautiful Hands & Arms http://teatrix.ru/viewtopic.php?t=2394682
Dancers Arms with Aruna http://teatrix.ru/viewtopic.php?t=2518008
All About Arms: Frames and Flourishes for Better Belly Dance http://teatrix.ru/viewtopic.php?t=4374671
Rachel Brice - Bellydance Arms and Posture http://teatrix.ru/viewtopic.php?t=2768301
FLOW Graceful Arms & Hands with Bozenka http://teatrix.ru/viewtopic.php?t=4601075
[teatrix.ru].t18753.torrent 
Торрент: Зарегистрирован [ 2016-03-18 12:00 ] · 374C4B60913852197215E93ADAB3A75483A2D9D5

Скачать .torrent

Скачать

19 KB

Статус: проверено
Скачан: 0 раз
Размер: 926 MB
terms.php



Быстрый ответ

Имя:

      
Для отправки сообщений необходимо включить JavaScript
Показать сообщения:    

Текущее время: 05-Дек 03:27

Часовой пояс: UTC + 3


Вы можете начинать темы
Вы можете отвечать на сообщения
Вы не можете редактировать свои сообщения
Вы не можете удалять свои сообщения
Вы не можете голосовать в опросах
Вы не можете прикреплять файлы к сообщениям
Вы можете скачивать файлы