FLOW Graceful Arms & Hands with Bozenka [2011, танец живота, DVDRip, ENG] (Видеоурок)


Статистика раздачи [Обновить пиров]
Размер:  348 MB   |    Зарегистрирован:  8 месяцев 22 дня   |    Скачан:  1 раз

Полного источника не было: 16 часов

Личеров:  3  [  0 KB/s  ]   Подробная статистика пиров
 
   
 
 
 

[Цитировать]

FLOW Graceful Arms & Hands with Bozenka
Страна: USA
Тематика: танец живота
Тип раздаваемого материала: Видеоурок
Продолжительность: 01:02:42
Год выпуска: 2011
Язык: Английский
Перевод: Отсутствует
Описание: In this instructional DVD, Bozenka teaches a wide variety of beautiful arm movements, hand movements and tips on how to make them flow and transition aesthetically.
В этом обучающем ДВД Боженка научит вас широкому разнообразию красивых танцевальных техник для рук и кистей и посоветует как сделать их плавными и эстетично перетекающими одно в другое.
Media Info

скрытый текст

General
Format : AVI
Format/Info : Audio Video Interleave
File size : 348 MiB
Duration : 1h 2mn
Overall bit rate : 777 Kbps
Writing library : MPlayer
Video
ID : 0
Format : MPEG-4 Visual
Format profile : Advanced Simple@L5
Format settings, BVOP : 2
Format settings, QPel : No
Format settings, GMC : No warppoints
Format settings, Matrix : Default (H.263)
Codec ID : XVID
Codec ID/Hint : XviD
Duration : 1h 2mn
Bit rate : 579 Kbps
Width : 720 pixels
Height : 400 pixels
Display aspect ratio : 16:9
Frame rate : 29.970 fps
Color space : YUV
Chroma subsampling : 4:2:0
Bit depth : 8 bits
Scan type : Progressive
Compression mode : Lossy
Bits/(Pixel*Frame) : 0.067
Stream size : 260 MiB (74%)
Writing library : XviD 64
Audio
ID : 1
Format : AC-3
Format/Info : Audio Coding 3
Mode extension : CM (complete main)
Codec ID : 2000
Duration : 1h 2mn
Bit rate mode : Constant
Bit rate : 192 Kbps
Channel(s) : 2 channels
Channel positions : Front: L R
Sampling rate : 48.0 KHz
Bit depth : 16 bits
Compression mode : Lossy
Stream size : 86.1 MiB (25%)
Alignment : Split accross interleaves
Interleave, duration : 500 ms (14.98 video frames)
Interleave, preload duration : 500 ms
Качество: DVDRip
Формат: AVI
Видео кодек: XviD
Аудио кодек: AC3
Видео: Xvid 720x400 29.97fps 578kbps 16:9
Аудио 2: Dolby AC3 48000Hz stereo 192kbps 2 ch

Скриншоты

Oriental Arms 1 with Katia http://teatrix.ru/viewtopic.php?t=1729919
Katia - Oriental Arms 2 http://teatrix.ru/viewtopic.php?t=2749125
Fahtiem - Beautiful Hands & Arms http://teatrix.ru/viewtopic.php?t=2394682
Dancers Arms with Aruna http://teatrix.ru/viewtopic.php?t=2518008
All About Arms: Frames and Flourishes for Better Belly Dance http://teatrix.ru/viewtopic.php?t=4374671
Rachel Brice - Bellydance Arms and Posture http://teatrix.ru/viewtopic.php?t=2768301
Tamalyn Dallal - Elegant and Expressive Hands and Arms http://teatrix.ru/viewtopic.php?t=4601066
[teatrix.ru].t18755.torrent 
Торрент: Зарегистрирован [ 2016-03-18 12:00 ] · EA78DE1ED449A3CEAFECEB32F1780D838F3AB8BF

Скачать .torrent

Скачать

14 KB

Статус: проверено
Скачан: 1 раз
Размер: 348 MB
terms.php



Быстрый ответ

Имя:

      
Для отправки сообщений необходимо включить JavaScript
Показать сообщения:    

Текущее время: 09-Дек 14:38

Часовой пояс: UTC + 3


Вы можете начинать темы
Вы можете отвечать на сообщения
Вы не можете редактировать свои сообщения
Вы не можете удалять свои сообщения
Вы не можете голосовать в опросах
Вы не можете прикреплять файлы к сообщениям
Вы можете скачивать файлы