Йога для полных [2011, Йога, SATRip, RUS]


Статистика раздачи [Обновить пиров]
Размер:  2.37 GB   |    Зарегистрирован:  8 месяцев 20 дней   |    Скачан:  0 раз

Полного источника не было: Никогда

Личеров:  3  [  0 KB/s  ]   Подробная статистика пиров
 
   
 
 
 

[Цитировать]

Йога для полных
Страна: Россия
Тематика: Йога
Тип раздаваемого материала: Видеоуроки
Продолжительность: 15 × 00:50:00
Год выпуска: 2011
Язык: Русский
Перевод: Не требуется
Описание: Прекрасный курс йоги для людей с избыточным весом. Его цель — не заставить вас худеть. А помочь отвлечься от своей внешности и перенаправить внимание внутрь, научить владеть своим телом и выстраивать асаны с учетом комплекции.
Качество: WEBRip
Формат: FLV
Видео кодек: H.264
Аудио кодек: AAC
Видео: AVC, 654×480 (4:3), 335 кбит/с, 30 fps
Аудио: AAC, 126 кбит/с, 44.1 KHz, с ch

MediaInfo

General
Complete name : G:\JV\Йога для полных\01. Вводный урок, вытяжение ног.flv
Format : Flash Video
File size : 172 MiB
Duration : 50mn 0s
Overall bit rate : 481 Kbps
Tagging application : Yet Another Metadata Injector for FLV - Version 1.9
Video
Format : AVC
Format/Info : Advanced Video Codec
Format profile : Baseline@L3.0
Format settings, CABAC : No
Format settings, ReFrames : 1 frame
Codec ID : 7
Duration : 50mn 0s
Bit rate : 335 Kbps
Width : 654 pixels
Height : 480 pixels
Display aspect ratio : 4:3
Frame rate mode : Constant
Frame rate : 30.000 fps
Color space : YUV
Chroma subsampling : 4:2:0
Bit depth : 8 bits
Scan type : Progressive
Bits/(Pixel*Frame) : 0.036
Stream size : 124 MiB (72%)
Writing library : Zencoder Video Encoding System
Audio
Format : AAC
Format/Info : Advanced Audio Codec
Format profile : LC
Codec ID : 10
Duration : 50mn 0s
Bit rate : 126 Kbps
Channel(s) : 2 channels
Channel positions : Front: L R
Sampling rate : 44.1 KHz
Compression mode : Lossy
Stream size : 47.4 MiB (28%)
[teatrix.ru].t18757.torrent 
Торрент: Зарегистрирован [ 2016-03-18 11:59 ] · F7266A5D739254F6DDBD27C45C9E7C88B382DC6A

Скачать .torrent

Скачать

13 KB

Статус: проверено
Скачан: 0 раз
Размер: 2.37 GB
terms.php



Быстрый ответ

Имя:

      
Для отправки сообщений необходимо включить JavaScript
Показать сообщения:    

Текущее время: 08-Дек 03:14

Часовой пояс: UTC + 3


Вы можете начинать темы
Вы можете отвечать на сообщения
Вы не можете редактировать свои сообщения
Вы не можете удалять свои сообщения
Вы не можете голосовать в опросах
Вы не можете прикреплять файлы к сообщениям
Вы можете скачивать файлы