Звёздный фитнес [2012, фитнес, гимнастика, аэробика, SATRip, RUS]


Статистика раздачи [Обновить пиров]
Размер:  4.78 GB   |    Зарегистрирован:  8 месяцев 21 день   |    Скачан:  1 раз

Полного источника не было: 3 месяца 7 дней

Личеров:  3  [  0 KB/s  ]   Подробная статистика пиров
 
   
 
 
 

[Цитировать]

Фитнес со звёздами с Ляйсан Утяшевой
Страна: Россия
Тематика: фитнес, гимнастика, аэробика
Тип раздаваемого материала: Видеоуроки
Продолжительность: 33 × 00:12:30
Год выпуска: 2012
Язык: Русский
Перевод: Не требуется
Описание: Авторская программа чемпионки мира и Европы по художественной гимнастике Ляйсан Утяшевой, основанная на личном опыте спортсменки. Ляйсан приглашает на свои уроки известных людей и на их примере доказывает эффективность своей фитнес-программы. С видеоуроками «Фитнес со звездами» вы быстро обретете отличную физическую форму и сможете поддерживать организм в тонусе. Первый сезон онлайн-занятий фитнесом с чемпионкой мира и Европы по художественной гимнастике Ляйсан Утяшевой. Программа, разработанная на личном опыте спортсменки, поможет вам интересно и с пользой заниматься дома.
Качество: WEBRip
Формат: MP4
Видео кодек: H.264
Аудио кодек: AAC
Видео: AVC, 720×576 (4:3), 1 500 кбит/с, 50 fps
Аудио: AAC, 157 кбит/с, 48.0 KHz, 2 ch

MediaInfo

General
Complete name : G:\JV\Фитнес со звездами с Ляйсан Утяшевой\1188.mp4
Format : MPEG-4
Format profile : Base Media / Version 2
Codec ID : mp42
File size : 148 MiB
Duration : 12mn 30s
Overall bit rate mode : Variable
Overall bit rate : 1 660 Kbps
Encoded date : UTC 2010-12-14 23:53:11
Tagged date : UTC 2010-12-14 23:53:11
Video
ID : 1
Format : AVC
Format/Info : Advanced Video Codec
Format profile : High@L3.2
Format settings, CABAC : Yes
Format settings, ReFrames : 4 frames
Codec ID : avc1
Codec ID/Info : Advanced Video Coding
Duration : 12mn 30s
Bit rate mode : Constant
Bit rate : 1 500 Kbps
Width : 720 pixels
Height : 576 pixels
Display aspect ratio : 4:3
Frame rate mode : Constant
Frame rate : 50.000 fps
Original frame rate : 25.000 fps
Standard : PAL
Color space : YUV
Chroma subsampling : 4:2:0
Bit depth : 8 bits
Scan type : Interlaced
Bits/(Pixel*Frame) : 0.072
Stream size : 134 MiB (90%)
Language : English
Encoded date : UTC 2010-12-14 23:53:11
Tagged date : UTC 2010-12-14 23:53:11
Color primaries : BT.601 PAL
Transfer characteristics : BT.470 System B, BT.470 System G
Matrix coefficients : BT.601
Audio
ID : 2
Format : AAC
Format/Info : Advanced Audio Codec
Format profile : LC
Codec ID : 40
Duration : 12mn 30s
Bit rate mode : Variable
Bit rate : 157 Kbps
Maximum bit rate : 243 Kbps
Channel(s) : 2 channels
Channel positions : Front: L R
Sampling rate : 48.0 KHz
Compression mode : Lossy
Stream size : 14.1 MiB (9%)
Language : English
Encoded date : UTC 2010-12-14 23:53:11
Tagged date : UTC 2010-12-14 23:53:11
[teatrix.ru].t18758.torrent 
Торрент: Зарегистрирован [ 2016-03-18 11:59 ] · BC1E563D31F9DAB4D9AC8D3BBB8FF2F65F3337E2

Скачать .torrent

Скачать

14 KB

Статус: проверено
Скачан: 1 раз
Размер: 4.78 GB
terms.php



Быстрый ответ

Имя:

      
Для отправки сообщений необходимо включить JavaScript
Показать сообщения:    

Текущее время: 09-Дек 10:51

Часовой пояс: UTC + 3


Вы можете начинать темы
Вы можете отвечать на сообщения
Вы не можете редактировать свои сообщения
Вы не можете удалять свои сообщения
Вы не можете голосовать в опросах
Вы не можете прикреплять файлы к сообщениям
Вы можете скачивать файлы