Namaste - The Five Elements in Yoga by Kate Potter [2010 г., йога, аюрведа, DVDRip, ENG] (Видеоуроки)


Статистика раздачи [Обновить пиров]
Размер:  1.46 GB   |    Зарегистрирован:  8 месяцев 19 дней   |    Скачан:  0 раз

Полного источника не было: Никогда

Личеров:  3  [  0 KB/s  ]   Подробная статистика пиров
 
   
 
 
 

[Цитировать]

Namaste - The Five Elements in Yoga by Kate Potter -Страна: США
Год выпуска: 2010
Жанр: йога, аюрведа
Продолжительность: 01:55:32
Язык: английский
Перевод: отсутствует
-Описание: Пять Элементов - это новая программа, которая дополняет новыми техниками и традиционной красотой оригинальную телевизионную передачу - Namaste Yoga.
В этом новом видео Кейт Поттер переводит на доступный язык древнюю мудрость аюрведы и показывает, как применять ее к сегодняшней жизни. Аюрведа - это холистическим метод древней Индии, который учит нас тому, что вся энергия жизни выражается через пять элементов. И для того, чтобы мы могли иметь идеальное здоровье, нам необходим баланс этих сил.
Здесь вы можете найти:
01 - Введение в аюрведическую йогу
02 - Namaste: расширенные последовательности для поклонников телепередачи
03 - Пять элементов дыхательной практики
04 - Йогические советы для создания собственной последовательности
-Качество: DVDRip
Формат: AVI
Видео: 704x400 (1.76:1), 23.976 fps, XviD build 65 ~1603 kbps avg, 0.24 bit/pixel
Аудио: 48 kHz, AC3 Dolby Digital, 2/0 (L,R) ch, ~192 kbps

Дополнительно


Меню - скриншоты DVD
-Namaste Yoga: The Original Series
The original series of Namaste was designed for people who want to become fitter, live healthier, and be happier. With this series, you can experience what yoga at home should feel like: stunning visuals, soothing music, and entirely original movement sequences that will calm the mind, strengthen the body, and inspire the soul.
We know that when it comes to choosing a yoga DVD, there are a lot of options for you. Here are a few qualities that we feel make us unique:
Universal. Namaste was designed for you. Whether you are brand new to yoga or have been practicing for years, our sequences can always be used to enhance your wellbeing - no matter what stage of life or level of fitness.
Original. Kate Potter's style is unique to Namaste Yoga. Our sequences combine postures in ways not found in any other style of yoga. The sequences emphasize flowing, graceful movements and gentle learning through repetition.
Complete. Not everyone has 90 minutes every day to devote to a yoga practice. At only 22 minutes per episode, Namaste is a complete yoga practice for tight schedules. And for those days when you just can't get off the mat, there are hundreds of ways to combine the sequences for a customized practice that is your ideal length.
Inspiring. With stunning visuals, soothing music, and gentle instruction, Namaste Yoga strives to go beyond ordinary workout DVDs to inspire you to reach all of your health and wellbeing goals - both on and off the mat.
Proven. Thousands of people have lost weight and gained flexibility, strength, and confidence by practicing Namaste Yoga.

Отчет MI

General
Complete name : \Namaste - The Five Elements in Yoga by Kate Potter (2010)\01-3 Pitta.avi
Format : AVI
Format/Info : Audio Video Interleave
File size : 178 MiB
Duration : 13mn 47s
Overall bit rate : 1 805 Kbps
Writing application : VirtualDubModRus 1.5.10.2 (build 2542/release)
Writing library : VirtualDubMod build 2542/release
Video
ID : 0
Format : MPEG-4 Visual
Format profile : Advanced Simple@L5
Format settings, BVOP : 1
Format settings, QPel : No
Format settings, GMC : No warppoints
Format settings, Matrix : Custom
Codec ID : XVID
Codec ID/Hint : XviD
Duration : 13mn 47s
Bit rate : 1 603 Kbps
Width : 704 pixels
Height : 400 pixels
Display aspect ratio : 16:9
Frame rate : 23.976 fps
Color space : YUV
Chroma subsampling : 4:2:0
Bit depth : 8 bits
Scan type : Progressive
Compression mode : Lossy
Bits/(Pixel*Frame) : 0.237
Stream size : 158 MiB (89%)
Writing library : XviD 65
Audio
ID : 1
Format : AC-3
Format/Info : Audio Coding 3
Mode extension : CM (complete main)
Format settings, Endianness : Big
Codec ID : 2000
Duration : 13mn 47s
Bit rate mode : Constant
Bit rate : 192 Kbps
Channel count : 2 channels
Channel positions : Front: L R
Sampling rate : 48.0 KHz
Bit depth : 16 bits
Compression mode : Lossy
Stream size : 18.9 MiB (11%)
Alignment : Split accross interleaves
Interleave, duration : 42 ms (1.00 video frame)
Interleave, preload duration : 500 ms
За перевод аннотации спасибо Anderzay!Раздача от группы
[teatrix.ru].t18763.torrent 
Торрент: Зарегистрирован [ 2016-03-18 11:59 ] · 142103AE369ED76B7AA91A86EB6824A2749AACE6

Скачать .torrent

Скачать

16 KB

Статус: проверено
Скачан: 0 раз
Размер: 1.46 GB
terms.php



Быстрый ответ

Имя:

      
Для отправки сообщений необходимо включить JavaScript
Показать сообщения:    

Текущее время: 06-Дек 17:09

Часовой пояс: UTC + 3


Вы можете начинать темы
Вы можете отвечать на сообщения
Вы не можете редактировать свои сообщения
Вы не можете удалять свои сообщения
Вы не можете голосовать в опросах
Вы не можете прикреплять файлы к сообщениям
Вы можете скачивать файлы