(Classical) The Hyperion Romantic Piano Concerto – Vol. 21: Dreyschock & Kullak (Lane, Willen) - 1999, FLAC (image+.cue) lossless


Статистика раздачи [Обновить пиров]
Размер:  255 MB   |    Зарегистрирован:  8 месяцев 23 дня   |    Скачан:  0 раз

Полного источника не было: Никогда

 
   
 
 
 

[Цитировать]

The Hyperion Romantic Piano Concerto – Vol. 21: Dreyschock & Kullak (Lane, Willén)
Жанр: Classical
Страна-производитель диска: Англия
Год издания диска: 1999
Издатель (лейбл): Hyperion
Номер по каталогу: CDA67086
Дата записи: 3 и 4 марта 1999 г., Глазго.
Аудиокодек: FLAC
Тип рипа: image+.cue
Битрейт аудио: lossless
Продолжительность: 00:59:26
Источник: odeonmusic
Наличие сканов в содержимом раздачи: да
Треклист:
Теодор Куллак (1818 — 1882).
Фортепианный концерт c-moll, op. 55 (ок. 1850).
01. I. Allegro [16:19].
02. II. Adagio ma non troppo. — Poco più stringendo. — Tempo I [08:22].
03. III. Allegro moderato ma con fuoco. — [Кода.] Großartig und breit. — Un poco più mosso [10:06].
Александр Дрейшок (1818 — 1869).
Фортепианный концерт d-moll, op. 137 (опубл. 1865?).
04. I. Allegro ma non troppo [10:03].
05. II. Andante con moto [06:10].
06. III. Allegro vivace [08:06].
Исполнители:
Piers Lane (фортепиано).
BBC Scottish Symphony Orchestra.
Дирижер Niklas Willén.

Лог создания рипа

Exact Audio Copy V1.0 beta 3 from 29. August 2011
EAC extraction logfile from 22. December 2012, 20:38
Piers Lane / Kullak, Dreyschock - Piano Concertos - Piers Lane
Used drive : TSSTcorpCDDVDW SH-222BB Adapter: 2 ID: 1
Read mode : Secure
Utilize accurate stream : Yes
Defeat audio cache : Yes
Make use of C2 pointers : No
Read offset correction : 6
Overread into Lead-In and Lead-Out : No
Fill up missing offset samples with silence : Yes
Delete leading and trailing silent blocks : No
Null samples used in CRC calculations : Yes
Used interface : Native Win32 interface for Win NT & 2000
Used output format : User Defined Encoder
Selected bitrate : 1024 kBit/s
Quality : High
Add ID3 tag : No
Command line compressor : C:\Program Files\Exact Audio Copy\Flac\flac.exe
Additional command line options : -8 -V -T "TITLE=%title%" -T "ARTIST=%artist%" -T "ALBUMARTIST=%albumartist%" -T "ALBUM=%albumtitle%" -T "DATE=%year%" -T "TRACKNUMBER=%tracknr%" -T "TRACKTOTAL=%numtracks%" -T "GENRE=%genre%" -T "COMMENT=%comment%" -T "PERFORMER=%albuminterpret%" -T "COMPOSER=%composer%" %source% -o %dest%
TOC of the extracted CD
Track | Start | Length | Start sector | End sector
---------------------------------------------------------
1 | 0:01.00 | 16:24.12 | 75 | 73886
2 | 16:25.12 | 8:22.00 | 73887 | 111536
3 | 24:47.12 | 10:16.25 | 111537 | 157761
4 | 35:03.37 | 10:07.13 | 157762 | 203299
5 | 45:10.50 | 6:10.37 | 203300 | 231086
6 | 51:21.12 | 8:08.63 | 231087 | 267749
Range status and errors
Selected range
Filename G:\Ripped general\[3066] Kullak, Dreyschock – Piano Concertos – Piers Lane (Romantic Piano Concerto – 21)\Kullak, Dreyschock - Piano Concertos - Piers Lane.wav
Peak level 95.3 %
Extraction speed 2.3 X
Range quality 99.9 %
Test CRC 3AA782ED
Copy CRC 3AA782ED
Copy OK
No errors occurred
AccurateRip summary
Track 1 accurately ripped (confidence 6) [7A82ECD0] (AR v1)
Track 2 accurately ripped (confidence 6) [A0BE2EB6] (AR v1)
Track 3 accurately ripped (confidence 6) [7158E87B] (AR v1)
Track 4 accurately ripped (confidence 6) [A7710436] (AR v1)
Track 5 accurately ripped (confidence 6) [00889B00] (AR v1)
Track 6 accurately ripped (confidence 6) [08FED8AF] (AR v1)
All tracks accurately ripped
End of status report

Содержание индексной карты (.CUE)

REM GENRE Classical
REM DATE 1999
REM DISCID 530DF106
REM COMMENT "ExactAudioCopy v1.0b3"
PERFORMER "Piers Lane & Niklas Willen"
TITLE "Kullak & Dreyschock – Piano Concertos – Piers Lane"
FILE "Kullak & Dreyschock – Piano Concertos – Piers Lane.flac" WAVE
TRACK 01 AUDIO
TITLE "Kullak - Piano Concerto in C minor, Op. 55 (ca. 1850) - I. Allegro"
PERFORMER "Piers Lane & Niklas Willen"
INDEX 00 00:00:00
INDEX 01 00:01:00
TRACK 02 AUDIO
TITLE "Kullak - Piano Concerto in C minor, Op. 55 (ca. 1850) - II. Adagio"
PERFORMER "Piers Lane & Niklas Willen"
INDEX 00 16:21:12
INDEX 01 16:25:12
TRACK 03 AUDIO
TITLE "Kullak - Piano Concerto in C minor, Op. 55 (ca. 1850) - III. Allegro moderato ma con fuoco"
PERFORMER "Piers Lane & Niklas Willen"
INDEX 01 24:47:12
TRACK 04 AUDIO
TITLE "Dreyschock - Piano Concerto in D minor, Op. 137 - I. Allegro ma non troppo"
PERFORMER "Piers Lane & Niklas Willen"
INDEX 00 34:53:37
INDEX 01 35:03:37
TRACK 05 AUDIO
TITLE "Dreyschock - Piano Concerto in D minor, Op. 137 - II. Andante con moto"
PERFORMER "Piers Lane & Niklas Willen"
INDEX 00 45:07:50
INDEX 01 45:10:50
TRACK 06 AUDIO
TITLE "Dreyschock - Piano Concerto in D minor, Op. 137 - III. Allegro vivace"
PERFORMER "Piers Lane & Niklas Willen"
INDEX 01 51:21:12
-Александр Дрейшок. Сочинения для фортепиано с оркестром (Howard Shelley).
[teatrix.ru].t18765.torrent 
Торрент: Зарегистрирован [ 2016-03-18 11:59 ] · 27F98C5965F5B907E351F390199776A935BDDFD4

Скачать .torrent

Скачать

22 KB

Статус: проверено
Скачан: 0 раз
Размер: 255 MB
terms.php



Быстрый ответ

Имя:

      
Для отправки сообщений необходимо включить JavaScript
Показать сообщения:    

Текущее время: 10-Дек 13:48

Часовой пояс: UTC + 3


Вы можете начинать темы
Вы можете отвечать на сообщения
Вы не можете редактировать свои сообщения
Вы не можете удалять свои сообщения
Вы не можете голосовать в опросах
Вы не можете прикреплять файлы к сообщениям
Вы можете скачивать файлы