Бенджамин Бриттен. Спрятанное сердце / Benjamin Britten. The Hidden Heart (Тереза Гриффитс / Teresa Griffiths) [2001, биография, музыка, DVDRip]


Статистика раздачи [Обновить пиров]
Размер:  599 MB   |    Зарегистрирован:  8 месяцев 23 дня   |    Скачан:  0 раз

Полного источника не было: Никогда

 
   
 
 
 

[Цитировать]

Бенджамин Бриттен. Спрятанное сердце / Benjamin Britten. The Hidden Heart
Год выпуска: 2001
Страна: Великобритания
Жанр: биография, музыка
Продолжительность: 00:57:23
Перевод: Субтитры
Русские субтитры: есть
Формат субтитров: softsub (SRT)
Оригинальная аудиодорожка: английский
Режиссер: Тереза Гриффитс / Teresa Griffiths
Телеканал: Channel Four
Описание: Документальный фильм о знаменитом британском композиторе Бенджамине Бриттене (1913-1976) и оперном певце Питере Пирсе (1910-1986), чей личный и творческий союз продолжался почти 40 лет.
Сэмпл: http://sendfile.su/991214
Качество: DVDRip
Формат: AVI
Видео: 688x384 (1.79:1), 25 fps, XviD build 50 ~1260 kbps avg, 0.19 bit/pixel
Аудио: 48 kHz, AC3 Dolby Digital, 2/0 (L,R) ch, ~192.00 kbps avg

MediaInfo

General
Complete name : D:\The Hidden Heart.avi
Format : AVI
Format/Info : Audio Video Interleave
File size : 599 MiB
Duration : 57mn 23s
Overall bit rate : 1 459 Kbps
Writing application : VirtualDubMod 1.5.4.1 (build 2178/release)
Writing library : VirtualDubMod build 2178/release
Video
ID : 0
Format : MPEG-4 Visual
Format profile : Advanced Simple@L5
Format settings, BVOP : Yes
Format settings, QPel : No
Format settings, GMC : No warppoints
Format settings, Matrix : Custom
Codec ID : XVID
Codec ID/Hint : XviD
Duration : 57mn 23s
Bit rate : 1 260 Kbps
Width : 688 pixels
Height : 384 pixels
Display aspect ratio : 16:9
Frame rate : 25.000 fps
Color space : YUV
Chroma subsampling : 4:2:0
Bit depth : 8 bits
Scan type : Progressive
Compression mode : Lossy
Bits/(Pixel*Frame) : 0.191
Stream size : 517 MiB (86%)
Writing library : XviD 1.2.1 (UTC 2008-12-04)
Audio
ID : 1
Format : AC-3
Format/Info : Audio Coding 3
Mode extension : CM (complete main)
Format settings, Endianness : Big
Codec ID : 2000
Duration : 57mn 23s
Bit rate mode : Constant
Bit rate : 192 Kbps
Channel count : 2 channels
Channel positions : Front: L R
Sampling rate : 48.0 KHz
Bit depth : 16 bits
Compression mode : Lossy
Stream size : 78.8 MiB (13%)
Alignment : Split accross interleaves
Interleave, duration : 96 ms (2.40 video frames)
Interleave, preload duration : 96 ms
[teatrix.ru].t18772.torrent 
Торрент: Зарегистрирован [ 2016-03-18 11:59 ] · 4CFF7179721FDB6F13C9EAE215B43312ED616E4F

Скачать .torrent

Скачать

12 KB

Статус: проверено
Скачан: 0 раз
Размер: 599 MB
terms.php



Быстрый ответ

Имя:

      
Для отправки сообщений необходимо включить JavaScript
Показать сообщения:    

Текущее время: 10-Дек 13:49

Часовой пояс: UTC + 3


Вы можете начинать темы
Вы можете отвечать на сообщения
Вы не можете редактировать свои сообщения
Вы не можете удалять свои сообщения
Вы не можете голосовать в опросах
Вы не можете прикреплять файлы к сообщениям
Вы можете скачивать файлы