(Classical) Алькан – Камерные концерты; Фортепианный концерт (орк. Клиндворт) / Alkan – Piano Concerto (orch. Klindworth); Concerti da camera Nos. 1 — 3 (Феофанов / Feofanov; Stankovsky) - 1998, FLAC (image+.cue) lossless


Статистика раздачи [Обновить пиров]
Размер:  196 MB   |    Зарегистрирован:  8 месяцев 18 дней   |    Скачан:  0 раз

Полного источника не было: Никогда

 
   
 
 
 

[Цитировать]

Алькан – Камерные концерты № 1 — 3; Фортепианный концерт (орк. Клиндворт) / Alkan – Piano Concerto (orch. Klindworth); Concerti da camera Nos. 1 — 3 (Феофанов / Feofanov; Stankovsky)
Жанр: Classical
Страна-производитель диска: ЕС
Год издания диска: 1998
Издатель (лейбл): Naxos
Номер по каталогу: 8.553702
Дата записи: 16 — 18 декабря 1995 г., Братислава.
Аудиокодек: FLAC
Тип рипа: image+.cue
Битрейт аудио: lossless
Продолжительность: 00:52:01
Источник: odeonmusic
Наличие сканов в содержимом раздачи: да
Треклист:
Шарль-Валантен Алькан (Моранж; 1813 — 1888).
Концерт для фортепиано с оркестром gis-moll, op. 39 № 8 (опубл. 1857), оркестровка К. Клиндворта (1 ред. оконч. 1872; 2 ред. оконч. 1902).
01. Allegro assai [24:49].
Камерный концерт для фортепиано со [струнным] оркестром № 2 cis-moll, op. 10 № 2 (1833).
02. Allegro moderato. — [07:31].
(03.) — Adagio. —
(04.) — Tempo I.
Камерный концерт для фортепиано со [струнным] оркестром № 3 Cis-dur (реконструирован Хью Макдональдом из Романтического анданте, op. 13 № 2).
03. Andante con moto [05:13].
Камерный концерт для фортепиано с оркестром № 1 a-moll, op. 10 № 1 (1831?; перв. исп. 1832).
04. I. Allegro moderato. — [14:18].
(07.) II. Adagio. —
(08.) III. Rondo. Allegro.
Исполнители:
Дмитрий Феофанов (фортепиано).
Razumovsky Symphony Orchestra.
Дирижер Robert Stankovsky.

Лог создания рипа

Exact Audio Copy V1.0 beta 3 from 29. August 2011
EAC extraction logfile from 4. February 2014, 19:10
Dmitry Feofanov / Alkan - Complete Works for Piano and Orchestra - Dmitry Feofanov
Used drive : TSSTcorpCDDVDW SH-222BB Adapter: 2 ID: 1
Read mode : Secure
Utilize accurate stream : Yes
Defeat audio cache : Yes
Make use of C2 pointers : No
Read offset correction : 6
Overread into Lead-In and Lead-Out : No
Fill up missing offset samples with silence : Yes
Delete leading and trailing silent blocks : No
Null samples used in CRC calculations : Yes
Used interface : Native Win32 interface for Win NT & 2000
Used output format : User Defined Encoder
Selected bitrate : 1024 kBit/s
Quality : High
Add ID3 tag : No
Command line compressor : C:\Program Files\Exact Audio Copy\Flac\flac.exe
Additional command line options : -8 -V -T "TITLE=%title%" -T "ARTIST=%artist%" -T "ALBUMARTIST=%albumartist%" -T "ALBUM=%albumtitle%" -T "DATE=%year%" -T "TRACKNUMBER=%tracknr%" -T "TRACKTOTAL=%numtracks%" -T "GENRE=%genre%" -T "COMMENT=%comment%" -T "PERFORMER=%albuminterpret%" -T "COMPOSER=%composer%" %source% -o %dest%
TOC of the extracted CD
Track | Start | Length | Start sector | End sector
---------------------------------------------------------
1 | 0:00.00 | 24:51.70 | 0 | 111894
2 | 24:51.70 | 7:33.00 | 111895 | 145869
3 | 32:24.70 | 5:15.72 | 145870 | 169566
4 | 37:40.67 | 14:18.35 | 169567 | 233951
Range status and errors
Selected range
Filename G:\Ripped general\[2920] Alkan – Complete Works for Piano and Orchestra – Dmitry Feofanov\Alkan - Complete Works for Piano and Orchestra - Dmitry Feofanov.wav
Peak level 94.4 %
Extraction speed 2.9 X
Range quality 100.0 %
Test CRC A1B414FE
Copy CRC A1B414FE
Copy OK
No errors occurred
AccurateRip summary
Track 1 accurately ripped (confidence 9) [5543D475] (AR v2)
Track 2 accurately ripped (confidence 9) [F2D075DF] (AR v2)
Track 3 accurately ripped (confidence 9) [DED23D05] (AR v2)
Track 4 accurately ripped (confidence 9) [A7F5F0A2] (AR v2)
All tracks accurately ripped
End of status report

Содержание индексной карты (.CUE)

REM GENRE Classical
REM DATE 1998
REM DISCID 330C2F04
REM COMMENT "ExactAudioCopy v1.0b3"
PERFORMER "Dmitry Feofanov & Robert Stankovsky"
TITLE "Alkan – Complete works for piano & orchestra – Dmitry Feofanov"
FILE "Alkan – Complete works for piano & orchestra – Dmitry Feofanov.flac" WAVE
TRACK 01 AUDIO
TITLE "Concerto for Piano and Orchestra in G sharp minor, Op. 39 No. 8 (orch. Klindworth)"
PERFORMER "Dmitry Feofanov & Robert Stankovsky"
INDEX 01 00:00:00
TRACK 02 AUDIO
TITLE "Concerto da camera No. 2 in C sharp minor"
PERFORMER "Dmitry Feofanov & Robert Stankovsky"
INDEX 00 24:49:15
INDEX 01 24:51:70
TRACK 03 AUDIO
TITLE "Concerto da camera No. 3 in C sharp major (reconstr. by Hugh Macdonald)"
PERFORMER "Dmitry Feofanov & Robert Stankovsky"
INDEX 00 32:22:60
INDEX 01 32:24:70
TRACK 04 AUDIO
TITLE "Concerto da camera No. 1 in A minor, Op. 10"
PERFORMER "Dmitry Feofanov & Robert Stankovsky"
INDEX 00 37:38:15
INDEX 01 37:40:67

Вариант индексной карты (.CUE) с разделением Первого и Второго концертов на отдельные треки

REM GENRE Classical
REM DATE 1998
REM DISCID 330C2F04
REM COMMENT "ExactAudioCopy v1.0b3"
PERFORMER "Dmitry Feofanov & Robert Stankovsky"
TITLE "Alkan – Complete works for piano & orchestra – Dmitry Feofanov"
FILE "Alkan – Complete works for piano & orchestra – Dmitry Feofanov.flac" WAVE
TRACK 01 AUDIO
TITLE "Concerto for Piano and Orchestra in G sharp minor, Op. 39 No. 8 (orch. Klindworth)"
PERFORMER "Dmitry Feofanov & Robert Stankovsky"
INDEX 01 00:00:00
TRACK 02 AUDIO
TITLE "Concerto da camera No. 2 in C sharp minor - Allegro moderato -"
PERFORMER "Dmitry Feofanov & Robert Stankovsky"
INDEX 00 24:49:15
INDEX 01 24:51:70
TRACK 03 AUDIO
TITLE "Concerto da camera No. 2 in C sharp minor - Adagio -"
PERFORMER "Dmitry Feofanov & Robert Stankovsky"
INDEX 01 27:32:42
TRACK 04 AUDIO
TITLE "Concerto da camera No. 2 in C sharp minor - Tempo I"
PERFORMER "Dmitry Feofanov & Robert Stankovsky"
INDEX 01 30:45:48
TRACK 05 AUDIO
TITLE "Concerto da camera No. 3 in C sharp major (reconstr. by Hugh Macdonald)"
PERFORMER "Dmitry Feofanov & Robert Stankovsky"
INDEX 00 32:22:60
INDEX 01 32:24:70
TRACK 06 AUDIO
TITLE "Concerto da camera No. 1 in A minor, Op. 10 - I. Allegro moderato -"
PERFORMER "Dmitry Feofanov & Robert Stankovsky"
INDEX 00 37:38:15
INDEX 01 37:40:67
TRACK 07 AUDIO
TITLE "Concerto da camera No. 1 in A minor, Op. 10 - II. Adagio -"
PERFORMER "Dmitry Feofanov & Robert Stankovsky"
INDEX 01 42:19:30
TRACK 08 AUDIO
TITLE "Concerto da camera No. 1 in A minor, Op. 10 - III. Rondo. Allegro"
PERFORMER "Dmitry Feofanov & Robert Stankovsky"
INDEX 01 45:21:10
[teatrix.ru].t18774.torrent 
Торрент: Зарегистрирован [ 2016-03-18 11:59 ] · 85036C3C03A6C8642E85E9D6B02A027295B108A5

Скачать .torrent

Скачать

17 KB

Статус: проверено
Скачан: 0 раз
Размер: 196 MB
terms.php



Быстрый ответ

Имя:

      
Для отправки сообщений необходимо включить JavaScript
Показать сообщения:    

Текущее время: 05-Дек 15:33

Часовой пояс: UTC + 3


Вы можете начинать темы
Вы можете отвечать на сообщения
Вы не можете редактировать свои сообщения
Вы не можете удалять свои сообщения
Вы не можете голосовать в опросах
Вы не можете прикреплять файлы к сообщениям
Вы можете скачивать файлы