(Classical, Pedal piano) The Hyperion Romantic Piano Concerto – Vol. 62: Gounod (Prosseda, Shelley) - 2013, FLAC (image+.cue) lossless


Статистика раздачи [Обновить пиров]
Размер:  215 MB   |    Зарегистрирован:  8 месяцев 23 дня   |    Скачан:  0 раз

Полного источника не было: Никогда

 
   
 
 
 

[Цитировать]

The Hyperion Romantic Piano Concerto – Vol. 62: Gounod (Prosseda, Shelley)
Жанр: Classical, Pedal piano
Страна-производитель диска: Франция
Год издания диска: 2013
Издатель (лейбл): Hyperion
Номер по каталогу: CDA67975
Дата записи: 24 — 26 октября 2012 г., Лугано.
Аудиокодек: FLAC
Тип рипа: image+.cue
Битрейт аудио: lossless
Продолжительность: 00:55:56
Источник: odeonmusic
Наличие сканов в содержимом раздачи: да
Треклист:
Шарль Франсуа Гуно (1818 — 1893).
Полное собрание произведений для педального фортепиано и оркестра.
Концертная сюита A-dur (оконч. 1886).
01. I. Начало праздника (Entrée de fête). Moderato maestoso [06:32].
02. II. Охота (Chasse). Allegro con fuoco [07:08].
03. III. Романсъ (Romance). Andante cantabile [05:49].
04. IV. Тарантелла (Tarentelle). Vivace [03:31].
Концерт Es-dur (оконч. 1889).
05. I. Allegro moderato [04:29].
06. II. Скерцо [03:36].
07. III. Adagio ma non troppo [07:23].
08. IV. Allegretto marziale (pomposo) [04:19].
Фантазия F-dur на тему гимна Российской Империи (1885).
09. Moderato maestoso [08:36].
10. Румынский танец d-moll (1888) [04:32].
Исполнители:
Roberto Prosseda (педальное фортепиано).
Orchestra della Svizzera Italiana.
Дирижер Howard Shelley.

Лог создания рипа

Exact Audio Copy V1.0 beta 3 from 29. August 2011
EAC extraction logfile from 18. November 2013, 20:27
Roberto Prosseda / Gounod - Works for Piano and Orchestra - Prosseda (Romantic Piano Concerto - 62)
Used drive : TSSTcorpCDDVDW SH-222BB Adapter: 2 ID: 1
Read mode : Secure
Utilize accurate stream : Yes
Defeat audio cache : Yes
Make use of C2 pointers : No
Read offset correction : 6
Overread into Lead-In and Lead-Out : No
Fill up missing offset samples with silence : Yes
Delete leading and trailing silent blocks : No
Null samples used in CRC calculations : Yes
Used interface : Native Win32 interface for Win NT & 2000
Used output format : User Defined Encoder
Selected bitrate : 1024 kBit/s
Quality : High
Add ID3 tag : No
Command line compressor : C:\Program Files\Exact Audio Copy\Flac\flac.exe
Additional command line options : -8 -V -T "TITLE=%title%" -T "ARTIST=%artist%" -T "ALBUMARTIST=%albumartist%" -T "ALBUM=%albumtitle%" -T "DATE=%year%" -T "TRACKNUMBER=%tracknr%" -T "TRACKTOTAL=%numtracks%" -T "GENRE=%genre%" -T "COMMENT=%comment%" -T "PERFORMER=%albuminterpret%" -T "COMPOSER=%composer%" %source% -o %dest%
TOC of the extracted CD
Track | Start | Length | Start sector | End sector
---------------------------------------------------------
1 | 0:00.00 | 6:31.58 | 0 | 29382
2 | 6:31.58 | 7:07.66 | 29383 | 61473
3 | 13:39.49 | 5:48.56 | 61474 | 87629
4 | 19:28.30 | 3:30.73 | 87630 | 103452
5 | 22:59.28 | 4:28.63 | 103453 | 123615
6 | 27:28.16 | 3:36.18 | 123616 | 139833
7 | 31:04.34 | 7:23.15 | 139834 | 173073
8 | 38:27.49 | 4:18.58 | 173074 | 192481
9 | 42:46.32 | 8:36.22 | 192482 | 231203
10 | 51:22.54 | 4:32.01 | 231204 | 251604
Range status and errors
Selected range
Filename G:\Ripped general\[8353] Gounod – Works for Piano and Orchestra – Prosseda (Romantic Piano Concerto – 62)\Gounod - Works for Piano and Orchestra - Prosseda (Romantic Piano Concerto - 62).wav
Peak level 99.9 %
Extraction speed 6.9 X
Range quality 100.0 %
Test CRC 4DC751D0
Copy CRC 4DC751D0
Copy OK
No errors occurred
AccurateRip summary
Track 1 not present in database
Track 2 not present in database
Track 3 not present in database
Track 4 not present in database
Track 5 not present in database
Track 6 not present in database
Track 7 not present in database
Track 8 not present in database
Track 9 not present in database
Track 10 not present in database
None of the tracks are present in the AccurateRip database
End of status report

Содержание индексной карты (.CUE)

REM GENRE Classical
REM DISCID 850D1A0A
REM COMMENT "ExactAudioCopy v1.0b3"
PERFORMER "Roberto Prosseda & Howard Shelley"
TITLE "Gounod – The complete works for pedal piano & orchestra – Roberto Prosseda"
FILE "Gounod – The complete works for pedal piano & orchestra – Roberto Prosseda.flac" WAVE
TRACK 01 AUDIO
TITLE "Suite concertante in A major for pedal piano & orchestra (1886) - I. Entree de fete. Moderato maestoso"
PERFORMER "Roberto Prosseda & Howard Shelley"
INDEX 01 00:00:00
TRACK 02 AUDIO
TITLE "Suite concertante in A major for pedal piano & orchestra (1886) - II. Chasse. Allegro con fuoco"
PERFORMER "Roberto Prosseda & Howard Shelley"
INDEX 01 06:31:58
TRACK 03 AUDIO
TITLE "Suite concertante in A major for pedal piano & orchestra (1886) - III. Romance. Andante cantabile"
PERFORMER "Roberto Prosseda & Howard Shelley"
INDEX 01 13:39:49
TRACK 04 AUDIO
TITLE "Suite concertante in A major for pedal piano & orchestra (1886) - IV. Tarentelle. Vivace"
PERFORMER "Roberto Prosseda & Howard Shelley"
INDEX 01 19:28:30
TRACK 05 AUDIO
TITLE "Concerto for pedal piano & orchestra in E flat major (1889) - I. Allegro moderato"
PERFORMER "Roberto Prosseda & Howard Shelley"
INDEX 00 22:46:48
INDEX 01 22:59:28
TRACK 06 AUDIO
TITLE "Concerto for pedal piano & orchestra in E flat major (1889) - II. Scherzo"
PERFORMER "Roberto Prosseda & Howard Shelley"
INDEX 01 27:28:16
TRACK 07 AUDIO
TITLE "Concerto for pedal piano & orchestra in E flat major (1889) - III. Adagio ma non troppo"
PERFORMER "Roberto Prosseda & Howard Shelley"
INDEX 01 31:04:34
TRACK 08 AUDIO
TITLE "Concerto for pedal piano & orchestra in E flat major (1889) - IV. Allegreto marziale (pomposo)"
PERFORMER "Roberto Prosseda & Howard Shelley"
INDEX 01 38:27:49
TRACK 09 AUDIO
TITLE "Fantaise sur l'hymne national russe for pedal piano & orchestra (1885)"
PERFORMER "Roberto Prosseda & Howard Shelley"
INDEX 00 42:32:74
INDEX 01 42:46:32
TRACK 10 AUDIO
TITLE "Danse roumaine for pedal piano & orchestra (1888)"
PERFORMER "Roberto Prosseda & Howard Shelley"
INDEX 00 51:12:74
INDEX 01 51:22:54

Вариант индексной карты (.CUE) с выставленными зазорами

REM GENRE Classical
REM DISCID 850D1A0A
REM COMMENT "ExactAudioCopy v1.0b3"
PERFORMER "Roberto Prosseda & Howard Shelley"
TITLE "Gounod – The complete works for pedal piano & orchestra – Roberto Prosseda"
FILE "Gounod – The complete works for pedal piano & orchestra – Roberto Prosseda.flac" WAVE
TRACK 01 AUDIO
TITLE "Suite concertante in A major for pedal piano & orchestra (1886) - I. Entree de fete. Moderato maestoso"
PERFORMER "Roberto Prosseda & Howard Shelley"
INDEX 01 00:00:00
TRACK 02 AUDIO
TITLE "Suite concertante in A major for pedal piano & orchestra (1886) - II. Chasse. Allegro con fuoco"
PERFORMER "Roberto Prosseda & Howard Shelley"
INDEX 00 06:26:17
INDEX 01 06:31:58
TRACK 03 AUDIO
TITLE "Suite concertante in A major for pedal piano & orchestra (1886) - III. Romance. Andante cantabile"
PERFORMER "Roberto Prosseda & Howard Shelley"
INDEX 00 13:36:71
INDEX 01 13:39:49
TRACK 04 AUDIO
TITLE "Suite concertante in A major for pedal piano & orchestra (1886) - IV. Tarentelle. Vivace"
PERFORMER "Roberto Prosseda & Howard Shelley"
INDEX 01 19:28:30
TRACK 05 AUDIO
TITLE "Concerto for pedal piano & orchestra in E flat major (1889) - I. Allegro moderato"
PERFORMER "Roberto Prosseda & Howard Shelley"
INDEX 00 22:46:48
INDEX 01 22:59:28
TRACK 06 AUDIO
TITLE "Concerto for pedal piano & orchestra in E flat major (1889) - II. Scherzo"
PERFORMER "Roberto Prosseda & Howard Shelley"
INDEX 00 27:25:03
INDEX 01 27:28:16
TRACK 07 AUDIO
TITLE "Concerto for pedal piano & orchestra in E flat major (1889) - III. Adagio ma non troppo"
PERFORMER "Roberto Prosseda & Howard Shelley"
INDEX 00 31:03:20
INDEX 01 31:04:34
TRACK 08 AUDIO
TITLE "Concerto for pedal piano & orchestra in E flat major (1889) - IV. Allegreto marziale (pomposo)"
PERFORMER "Roberto Prosseda & Howard Shelley"
INDEX 01 38:27:49
TRACK 09 AUDIO
TITLE "Fantaise sur l'hymne national russe for pedal piano & orchestra (1885)"
PERFORMER "Roberto Prosseda & Howard Shelley"
INDEX 00 42:32:74
INDEX 01 42:46:32
TRACK 10 AUDIO
TITLE "Danse roumaine for pedal piano & orchestra (1888)"
PERFORMER "Roberto Prosseda & Howard Shelley"
INDEX 00 51:12:74
INDEX 01 51:22:54
INDEX 02 55:50:59
[teatrix.ru].t18775.torrent 
Торрент: Зарегистрирован [ 2016-03-18 11:59 ] · 7BAC6DA6933B476904FF53CF0DB875EEC5D9769D

Скачать .torrent

Скачать

18 KB

Статус: проверено
Скачан: 0 раз
Размер: 215 MB
terms.php



Быстрый ответ

Имя:

      
Для отправки сообщений необходимо включить JavaScript
Показать сообщения:    

Текущее время: 10-Дек 23:25

Часовой пояс: UTC + 3


Вы можете начинать темы
Вы можете отвечать на сообщения
Вы не можете редактировать свои сообщения
Вы не можете удалять свои сообщения
Вы не можете голосовать в опросах
Вы не можете прикреплять файлы к сообщениям
Вы можете скачивать файлы