(Electronic, Rock, Classical Crossover) The Fast Forward Music Project (John Lawton) - Excalibur - 1993, FLAC (tracks+.cue) lossless


 

[Цитировать]

The Fast Forward Music Project - Excalibur (1993)
Жанр: Electronic, Rock, Classical Crossover
Страна-производитель диска: Germany
Год издания диска: 1993
Издатель (лейбл): Edel
Номер по каталогу: EDL 2727-2
Страна: Germany
Аудиокодек: FLAC
Тип рипа: tracks+.cue
Битрейт аудио: lossless
Продолжительность: 01:04:17
Источник: собственный рип
Наличие сканов в содержимом раздачи: нет, но есть фото в папке "Artwork"
Треклист:
01. In The Dungeons (Composed By Grieg; Vocals Sabine Krieg) (5:34)
02. Dance Of The Sabres (Composed By Chatschaturjan) (6:25)
03. Two Life Love Affair (Composed By Prokofiev) (6:01)
04. Set The World On Fire (Composed By Dvorak; Vocals John Lawton) (8:20)
05. What Fate Can Do (Composed By Beethoven) (6:03)
06. Back To The Highlands (Composed By Applegate, Wagner; Vocals John Lawton) (5:17)
07. Enigmatic Woods (Composed By Liszt) (8:26)
08. At The Round Table (Composed By Borodin) (5:13)
09. Celebration (Composed By Verdi) (5:54)
10. The Power Of Nature (Composed By Debussy) (7:05)

Лог создания рипа

Exact Audio Copy V1.0 beta 1 from 15. November 2010
EAC extraction logfile from 9. June 2014, 13:08
Fast Forward Music Project / Excalibur
Used drive : Optiarc DVD RW AD-7200A Adapter: 0 ID: 0
Read mode : Secure
Utilize accurate stream : Yes
Defeat audio cache : Yes
Make use of C2 pointers : No
Read offset correction : 48
Overread into Lead-In and Lead-Out : No
Fill up missing offset samples with silence : Yes
Delete leading and trailing silent blocks : No
Null samples used in CRC calculations : Yes
Used interface : Native Win32 interface for Win NT & 2000
Gap handling : Appended to previous track
Used output format : User Defined Encoder
Selected bitrate : 768 kBit/s
Quality : High
Add ID3 tag : No
Command line compressor : C:\Program Files\Exact Audio Copy\Flac\flac.exe
Additional command line options : -8 -V -T "ARTIST=%a" -T "TITLE=%t" -T "ALBUM=%g" -T "DATE=%y" -T "TRACKNUMBER=%n" -T "TOTALTRACKS=%x" -T "GENRE=%m" -T "ALBUMARTIST=%v" -T "ALBUM ARTIST=%v" -T "COMMENT=EAC Secure Mode, Test & Copy, AccurateRip, FLAC -8" %s
TOC of the extracted CD
Track | Start | Length | Start sector | End sector
---------------------------------------------------------
1 | 0:00.00 | 5:33.67 | 0 | 25041
2 | 5:33.67 | 6:24.40 | 25042 | 53881
3 | 11:58.32 | 6:00.50 | 53882 | 80931
4 | 17:59.07 | 8:20.20 | 80932 | 118451
5 | 26:19.27 | 6:02.58 | 118452 | 145659
6 | 32:22.10 | 5:16.62 | 145660 | 169421
7 | 37:38.72 | 8:26.15 | 169422 | 207386
8 | 46:05.12 | 5:12.73 | 207387 | 230859
9 | 51:18.10 | 5:53.47 | 230860 | 257381
10 | 57:11.57 | 7:05.23 | 257382 | 289279
Track 1
Filename D:\Fast Forward Music Project - Excalibur (1993) [FLAC]\01 - In The Dungeons (Grieg).wav
Pre-gap length 0:00:02.00
Peak level 100.0 %
Extraction speed 2.7 X
Track quality 100.0 %
Test CRC 615E7764
Copy CRC 615E7764
Accurately ripped (confidence 4) [E6D416E9]
Copy OK
Track 2
Filename D:\Fast Forward Music Project - Excalibur (1993) [FLAC]\02 - Dance Of The Sabres (Chatschaturjan).wav
Pre-gap length 0:00:02.45
Peak level 100.0 %
Extraction speed 2.9 X
Track quality 99.9 %
Test CRC CD154769
Copy CRC CD154769
Accurately ripped (confidence 4) [E67D3B10]
Copy OK
Track 3
Filename D:\Fast Forward Music Project - Excalibur (1993) [FLAC]\03 - Two Life Love Affair (Prokofiev).wav
Pre-gap length 0:00:02.42
Peak level 97.2 %
Extraction speed 3.5 X
Track quality 100.0 %
Test CRC 95138D92
Copy CRC 95138D92
Accurately ripped (confidence 4) [0160D2F0]
Copy OK
Track 4
Filename D:\Fast Forward Music Project - Excalibur (1993) [FLAC]\04 - Set The World On Fire (Dvorak).wav
Pre-gap length 0:00:02.50
Peak level 98.0 %
Extraction speed 4.0 X
Track quality 100.0 %
Test CRC 846FF734
Copy CRC 846FF734
Accurately ripped (confidence 4) [110F3729]
Copy OK
Track 5
Filename D:\Fast Forward Music Project - Excalibur (1993) [FLAC]\05 - What Fate Can Do (Beethoven).wav
Pre-gap length 0:00:01.32
Peak level 100.0 %
Extraction speed 4.2 X
Track quality 100.0 %
Test CRC 7D718B9E
Copy CRC 7D718B9E
Accurately ripped (confidence 4) [8F1CB951]
Copy OK
Track 6
Filename D:\Fast Forward Music Project - Excalibur (1993) [FLAC]\06 - Back To The Highlands (Applegate, Wagner).wav
Pre-gap length 0:00:01.70
Peak level 95.6 %
Extraction speed 4.4 X
Track quality 100.0 %
Test CRC A9907387
Copy CRC A9907387
Accurately ripped (confidence 4) [36B5C2A7]
Copy OK
Track 7
Filename D:\Fast Forward Music Project - Excalibur (1993) [FLAC]\07 - Enigmatic Woods (Liszt).wav
Pre-gap length 0:00:02.45
Peak level 96.9 %
Extraction speed 4.8 X
Track quality 100.0 %
Test CRC 0EC03946
Copy CRC 0EC03946
Accurately ripped (confidence 4) [A0A84882]
Copy OK
Track 8
Filename D:\Fast Forward Music Project - Excalibur (1993) [FLAC]\08 - At The Round Table (Borodin).wav
Pre-gap length 0:00:02.52
Peak level 97.8 %
Extraction speed 4.9 X
Track quality 100.0 %
Test CRC 8AB9DFBD
Copy CRC 8AB9DFBD
Accurately ripped (confidence 4) [30291855]
Copy OK
Track 9
Filename D:\Fast Forward Music Project - Excalibur (1993) [FLAC]\09 - Celebration (Verdi).wav
Pre-gap length 0:00:02.48
Peak level 97.9 %
Extraction speed 4.7 X
Track quality 99.9 %
Test CRC 034810E8
Copy CRC 034810E8
Accurately ripped (confidence 2) [E6F7FA6B]
Copy OK
Track 10
Filename D:\Fast Forward Music Project - Excalibur (1993) [FLAC]\10 - The Power Of Nature (Debussy).wav
Pre-gap length 0:00:02.47
Peak level 98.8 %
Extraction speed 5.5 X
Track quality 100.0 %
Test CRC CD489DB6
Copy CRC CD489DB6
Accurately ripped (confidence 4) [A51DE514]
Copy OK
All tracks accurately ripped
No errors occurred
End of status report
==== Log checksum BAAD6DF1F7DB5ABBF97F2BA3293E20A3C105F71F11DBA8333051683D5C54D20F ====

Содержание индексной карты (.CUE)

REM GENRE Crossover
REM DATE 1993
REM DISCID 790F110A
REM COMMENT "ExactAudioCopy v1.0b1"
PERFORMER "Fast Forward Music Project"
TITLE "Excalibur"
FILE "01 - In The Dungeons (Grieg).wav" WAVE
TRACK 01 AUDIO
TITLE "In The Dungeons (Grieg)"
PERFORMER "Fast Forward Music Project"
INDEX 01 00:00:00
TRACK 02 AUDIO
TITLE "Dance Of The Sabres (Chatschaturjan)"
PERFORMER "Fast Forward Music Project"
INDEX 00 05:31:22
FILE "02 - Dance Of The Sabres (Chatschaturjan).wav" WAVE
INDEX 01 00:00:00
TRACK 03 AUDIO
TITLE "Two Life Love Affair (Prokofiev)"
PERFORMER "Fast Forward Music Project"
INDEX 00 06:21:73
FILE "03 - Two Life Love Affair (Prokofiev).wav" WAVE
INDEX 01 00:00:00
TRACK 04 AUDIO
TITLE "Set The World On Fire (Dvorak)"
PERFORMER "Fast Forward Music Project"
INDEX 00 05:58:00
FILE "04 - Set The World On Fire (Dvorak).wav" WAVE
INDEX 01 00:00:00
TRACK 05 AUDIO
TITLE "What Fate Can Do (Beethoven)"
PERFORMER "Fast Forward Music Project"
INDEX 00 08:18:63
FILE "05 - What Fate Can Do (Beethoven).wav" WAVE
INDEX 01 00:00:00
TRACK 06 AUDIO
TITLE "Back To The Highlands (Applegate, Wagner)"
PERFORMER "Fast Forward Music Project"
INDEX 00 06:00:63
FILE "06 - Back To The Highlands (Applegate, Wagner).wav" WAVE
INDEX 01 00:00:00
TRACK 07 AUDIO
TITLE "Enigmatic Woods (Liszt)"
PERFORMER "Fast Forward Music Project"
INDEX 00 05:14:17
FILE "07 - Enigmatic Woods (Liszt).wav" WAVE
INDEX 01 00:00:00
TRACK 08 AUDIO
TITLE "At The Round Table (Borodin)"
PERFORMER "Fast Forward Music Project"
INDEX 00 08:23:38
FILE "08 - At The Round Table (Borodin).wav" WAVE
INDEX 01 00:00:00
TRACK 09 AUDIO
TITLE "Celebration (Verdi)"
PERFORMER "Fast Forward Music Project"
INDEX 00 05:10:25
FILE "09 - Celebration (Verdi).wav" WAVE
INDEX 01 00:00:00
TRACK 10 AUDIO
TITLE "The Power Of Nature (Debussy)"
PERFORMER "Fast Forward Music Project"
INDEX 00 05:51:00
FILE "10 - The Power Of Nature (Debussy).wav" WAVE
INDEX 01 00:00:00

Об альбоме (сборнике)

REVIEW by Amazon.de
Es gibt bisher nichts, was diese Art von Musik übertreffen könnte. Bis auf wenige Ausnahmen ist alles instrumental, eine Mischungs aus Klassik und Rockelementen. Nur zu empfehlen. ~ Von Ein Kunde
Einfach eine geniale Mischung aus klassichen und neuzeitlichen Elementen; schade daß die CD seit geraumer Zeit nicht mehr zu bekommen ist. Die Musik läd ein zu einer Reise durch die eigene Phantasie... ~ Von karin.zettl@t-online.de

Состав

Classical Rock Saga Project. Preformed by the Fast Foward Music Project:
Sabine Krieg - Vocals
John Lawton - Vocals
Cinmayo - Guitars
Javelin - Megaphon
Volker Barber - Keyboard, Conception, Production
http://www.discogs.com/Fast-Forward-Music-Project-Excalibur/release/1414041
Доп. информация: Весьма редкий компакт диск. Любителям обработок классической музыки, групп типа Enigma и творчества вокалиста John Lawton (Lucifer's Friend, Uriah Heep) - обязателен к скачиванию, нарезанию на болванку и прослушиванию вместе с соседями...



Показать сообщения:    

Текущее время: 08-Дек 21:09

Часовой пояс: UTC + 3


Вы не можете начинать темы
Вы не можете отвечать на сообщения
Вы не можете редактировать свои сообщения
Вы не можете удалять свои сообщения
Вы не можете голосовать в опросах
Вы не можете прикреплять файлы к сообщениям
Вы не можете скачивать файлы