(Concerto) Hindemith - Kammermusik - Brautigam, Harrel, Kulka, Kashkashian, Blume, van Doeselaar; Royal Concertgebouw Orchestra, Chailly - 1992, FLAC (image+.cue) lossless


Статистика раздачи [Обновить пиров]
Размер:  561 MB   |    Зарегистрирован:  8 месяцев 15 дней   |    Скачан:  0 раз

Полного источника не было: Никогда

 
   
 
 
 

[Цитировать]

Paul Hindemith - Kammermusik - Brautigam, Harrel, Kulka, Kashkashian, Blume, van Doeselaar; Royal Concertgebouw Orchestra, Riccardo Chailly
Жанр: Concerto
Страна-производитель диска: Germany
Год издания диска: 1992
Издатель (лейбл): Decca
Номер по каталогу: 433816
Дата записи: 1990
Аудиокодек: FLAC
Тип рипа: image+.cue
Битрейт аудио: lossless
Продолжительность: 138:04
Источник: собственный рип
Наличие сканов в содержимом раздачи: да
Треклист:
CD 1
[01]-[04] Kammermusik No. 1 Op. 24 No. 1 (für 12 Solo-Instrumente)
[05]-[09] Kleine Kammermusik for wind quintet, Op. 24 No. 2
[10]-[13] Kammermusik No. 2 Op. 36 No. 1 (Klavierkonzert)
[14]-[17] Kammermusik No. 3 Op. 36 No. 2 (Cellokonzert)
CD 2
[01]-[05] Kammermusik No. 4 Op. 36 No. 3 (Violinkonzert)
[06]-[09] Kammermusik No. 5 Op. 36 No. 4 (Bratschenkonzert)
[10]-[13] Kammermusik No. 6 Op. 46 No. 1 (Konzert für Viola d'amore)
[14]-[16] Kammermusik No. 7 Op. 46 No. 2 (Konzert für Orgel)
Исполнители:
Ronald Brautigam, piano
Lynn Harrell, cello
Konstanty Kulka, violin
Kim Kashkashian, viola
Norbert Blume, viola d'amore
Leo van Doeselaar, organ
Royal Concertgebouw Orchestra, Riccardo Chailly

Лог создания рипа CD1

Exact Audio Copy V1.0 beta 3 from 29. August 2011
EAC extraction logfile from 18. June 2014, 19:44
Royal Concertgebouw, Chailly / Hindemith - Kammermusik 1-7 (CD1)
Used drive : SlimtypeDVD A DS8A5SH Adapter: 0 ID: 1
Read mode : Secure
Utilize accurate stream : Yes
Defeat audio cache : Yes
Make use of C2 pointers : No
Read offset correction : 6
Overread into Lead-In and Lead-Out : No
Fill up missing offset samples with silence : Yes
Delete leading and trailing silent blocks : No
Null samples used in CRC calculations : Yes
Used interface : Native Win32 interface for Win NT & 2000
Used output format : User Defined Encoder
Selected bitrate : 32 kBit/s
Quality : High
Add ID3 tag : No
Command line compressor : C:\Program Files\Exact Audio Copy\Flac\flac.exe
Additional command line options : -8 -V -T "ARTIST=%artist%" -T "TITLE=%title%" -T "ALBUM=%albumtitle%" -T "DATE=%year%" -T "TRACKNUMBER=%tracknr%" -T "GENRE=%genre%" -T "PERFORMER=%albuminterpret%" -T "COMPOSER=%composer%" %haslyrics%--tag-from-file=LYRICS="%lyricsfile%"%haslyrics% -T "ALBUMARTIST=%albumartist%" -T "DISCNUMBER=%cdnumber%" -T "TOTALDISCS=%totalcds%" -T "TOTALTRACKS=%numtracks%" -T "COMMENT=%comment%" %source% -o %dest%
TOC of the extracted CD
Track | Start | Length | Start sector | End sector
---------------------------------------------------------
1 | 0:00.32 | 1:06.13 | 32 | 4994
2 | 1:06.45 | 3:29.25 | 4995 | 20694
3 | 4:35.70 | 4:27.12 | 20695 | 40731
4 | 9:03.07 | 6:18.50 | 40732 | 69131
5 | 15:21.57 | 2:56.13 | 69132 | 82344
6 | 18:17.70 | 1:56.25 | 82345 | 91069
7 | 20:14.20 | 4:54.00 | 91070 | 113119
8 | 25:08.20 | 0:50.37 | 113120 | 116906
9 | 25:58.57 | 2:54.00 | 116907 | 129956
10 | 28:52.57 | 3:24.63 | 129957 | 145319
11 | 32:17.45 | 8:15.37 | 145320 | 182481
12 | 40:33.07 | 1:31.00 | 182482 | 189306
13 | 42:04.07 | 5:52.00 | 189307 | 215706
14 | 47:56.07 | 2:16.05 | 215707 | 225911
15 | 50:12.12 | 4:22.45 | 225912 | 245606
16 | 54:34.57 | 7:32.13 | 245607 | 279519
17 | 62:06.70 | 3:15.37 | 279520 | 294181
Range status and errors
Selected range
Filename C:\Users\BIANCA\Desktop\file scuola\Royal Concertgebouw, Chailly - Hindemith - Kammermusik 1-7 (CD1).wav
Peak level 97.6 %
Extraction speed 2.1 X
Range quality 100.0 %
Copy CRC EECAF620
Copy OK
No errors occurred
AccurateRip summary
Track 1 accurately ripped (confidence 16) [C68B6825] (AR v2)
Track 2 accurately ripped (confidence 16) [878B8310] (AR v2)
Track 3 accurately ripped (confidence 16) [7330F422] (AR v2)
Track 4 accurately ripped (confidence 16) [ABAB7B60] (AR v2)
Track 5 accurately ripped (confidence 16) [54F66064] (AR v2)
Track 6 accurately ripped (confidence 15) [E2720290] (AR v2)
Track 7 accurately ripped (confidence 15) [0F1E0DAE] (AR v2)
Track 8 accurately ripped (confidence 16) [F8564341] (AR v2)
Track 9 accurately ripped (confidence 16) [06D0AC44] (AR v2)
Track 10 accurately ripped (confidence 16) [8661AF68] (AR v2)
Track 11 accurately ripped (confidence 16) [D3133092] (AR v2)
Track 12 accurately ripped (confidence 16) [0AF3F1E5] (AR v2)
Track 13 accurately ripped (confidence 15) [3DA9B0F1] (AR v2)
Track 14 accurately ripped (confidence 15) [857735B4] (AR v2)
Track 15 accurately ripped (confidence 15) [0ECD8E25] (AR v2)
Track 16 accurately ripped (confidence 15) [C25D01B9] (AR v2)
Track 17 accurately ripped (confidence 16) [86AF6B58] (AR v2)
All tracks accurately ripped
End of status report
==== Log checksum 7913F01C13FE1A6339C413BC090FAD9D482591AB5B77E301E16EE05B68DFC8C9 ====

Лог создания рипа CD2

Exact Audio Copy V1.0 beta 3 from 29. August 2011
EAC extraction logfile from 18. June 2014, 21:34
RCO, Chailly / Hindemith - Kammermusik 1-7 (CD2)
Used drive : SlimtypeDVD A DS8A5SH Adapter: 0 ID: 1
Read mode : Secure
Utilize accurate stream : Yes
Defeat audio cache : Yes
Make use of C2 pointers : No
Read offset correction : 6
Overread into Lead-In and Lead-Out : No
Fill up missing offset samples with silence : Yes
Delete leading and trailing silent blocks : No
Null samples used in CRC calculations : Yes
Used interface : Native Win32 interface for Win NT & 2000
Used output format : User Defined Encoder
Selected bitrate : 32 kBit/s
Quality : High
Add ID3 tag : No
Command line compressor : C:\Program Files\Exact Audio Copy\Flac\flac.exe
Additional command line options : -8 -V -T "ARTIST=%artist%" -T "TITLE=%title%" -T "ALBUM=%albumtitle%" -T "DATE=%year%" -T "TRACKNUMBER=%tracknr%" -T "GENRE=%genre%" -T "PERFORMER=%albuminterpret%" -T "COMPOSER=%composer%" %haslyrics%--tag-from-file=LYRICS="%lyricsfile%"%haslyrics% -T "ALBUMARTIST=%albumartist%" -T "DISCNUMBER=%cdnumber%" -T "TOTALDISCS=%totalcds%" -T "TOTALTRACKS=%numtracks%" -T "COMMENT=%comment%" %source% -o %dest%
TOC of the extracted CD
Track | Start | Length | Start sector | End sector
---------------------------------------------------------
1 | 0:00.33 | 1:54.07 | 33 | 8589
2 | 1:54.40 | 5:32.55 | 8590 | 33544
3 | 7:27.20 | 7:20.00 | 33545 | 66544
4 | 14:47.20 | 3:13.00 | 66545 | 81019
5 | 18:00.20 | 2:20.13 | 81020 | 91532
6 | 20:20.33 | 4:02.37 | 91533 | 109719
7 | 24:22.70 | 8:08.50 | 109720 | 146369
8 | 32:31.45 | 3:29.63 | 146370 | 162107
9 | 36:01.33 | 3:30.62 | 162108 | 177919
10 | 39:32.20 | 3:37.25 | 177920 | 194219
11 | 43:09.45 | 6:46.00 | 194220 | 224669
12 | 49:55.45 | 4:17.63 | 224670 | 244007
13 | 54:13.33 | 1:34.25 | 244008 | 251082
14 | 55:47.58 | 3:26.25 | 251083 | 266557
15 | 59:14.08 | 6:57.12 | 266558 | 297844
16 | 66:11.20 | 6:31.13 | 297845 | 327182
Range status and errors
Selected range
Filename C:\Users\BIANCA\Desktop\file scuola\RCO, Chailly - Hindemith - Kammermusik 1-7 (CD2).wav
Peak level 99.7 %
Extraction speed 2.1 X
Range quality 100.0 %
Copy CRC 6D4F44E9
Copy OK
No errors occurred
AccurateRip summary
Track 1 accurately ripped (confidence 17) [0371F4EC] (AR v2)
Track 2 accurately ripped (confidence 17) [FBD11F46] (AR v2)
Track 3 accurately ripped (confidence 17) [2FFDB556] (AR v2)
Track 4 accurately ripped (confidence 17) [41CE618A] (AR v2)
Track 5 accurately ripped (confidence 17) [805F22E3] (AR v2)
Track 6 accurately ripped (confidence 17) [5CB1A3F3] (AR v2)
Track 7 accurately ripped (confidence 17) [23D371DE] (AR v2)
Track 8 accurately ripped (confidence 17) [AFC2F49B] (AR v2)
Track 9 accurately ripped (confidence 17) [C121D879] (AR v2)
Track 10 accurately ripped (confidence 16) [9DA4BA0B] (AR v2)
Track 11 accurately ripped (confidence 17) [BA5569A6] (AR v2)
Track 12 accurately ripped (confidence 17) [2AECA350] (AR v2)
Track 13 accurately ripped (confidence 17) [E092C196] (AR v2)
Track 14 accurately ripped (confidence 17) [0FDF41C2] (AR v2)
Track 15 accurately ripped (confidence 17) [A1FB7982] (AR v2)
Track 16 accurately ripped (confidence 16) [ED74AA18] (AR v2)
All tracks accurately ripped
End of status report
==== Log checksum E5072C03D1AA875AAC9795EF296B52C14F514F295444FE81E2B174D5D8795C30 ====
[teatrix.ru].t18786.torrent 
Торрент: Зарегистрирован [ 2016-03-18 11:59 ] · D057194F57C1A7E158016E92DC1E1EE503D3A4C4

Скачать .torrent

Скачать

12 KB

Статус: проверено
Скачан: 0 раз
Размер: 561 MB
terms.php



Быстрый ответ

Имя:

      
Для отправки сообщений необходимо включить JavaScript
Показать сообщения:    

Текущее время: 03-Дек 09:40

Часовой пояс: UTC + 3


Вы можете начинать темы
Вы можете отвечать на сообщения
Вы не можете редактировать свои сообщения
Вы не можете удалять свои сообщения
Вы не можете голосовать в опросах
Вы не можете прикреплять файлы к сообщениям
Вы можете скачивать файлы