(Classical) Ludwig van Beethoven - Cello Sonatas (Steven Isserlis, Robert Levin) - 2014, FLAC (tracks+.cue) lossless


 

[Цитировать]

Ludwig van Beethoven - Cello Sonatas (Steven Isserlis, Robert Levin)
Жанр: Classical
Год издания диска: 2014
Издатель (лейбл): Hyperion
Номер по каталогу: 67981
Аудиокодек: FLAC
Тип рипа: tracks+.cue
Битрейт аудио: lossless
Продолжительность: CD1:79’53, CD2:79'11
Источник: скачано из сети
Наличие сканов в содержимом раздачи: да
Исполнители:
Steven Isserlis,
Robert Levin

Треклист:

CD1
Cello Sonata in F major Op 5 No 1 [24'01]
1 Adagio sostenuto [2'47]
2 Allegro [14'11]
3 Allegro vivace [7'03]
Cello Sonata in G minor Op 5 No 2 [28'47]
4 Adagio sostenuto ed espressivo [5'19]
5 Allegro molto più tosto presto [14'12]
6 Rondo: Allegro [9'16]
Cello Sonata in A major Op 69 [26'57]
7 Allegro, ma non tanto [12'35]
8 Scherzo: Allegro molto [5'24]
9 Adagio cantabile [1'30]
10 Allegro vivace [7'28]
CD2
Cello Sonata in C major Op 102 No 1 [15'47]
1 Andante [2'53]
2 Allegro vivace [5'11]
3 Adagio – Tempo d’andante [3'15]
4 Allegro vivace [4'28]
Cello Sonata in D major Op 102 No 2 [19'29]
5 Allegro con brio [6'43]
6 Adagio con molto sentimento d’affetto [8'12]
7 Allegro – Allegro fugato [4'34]
8 Variations in G major on ‘See the conqu’ring hero comes’ from Handel’s Judas Maccabaeus WoO45 [11'24]
9 Variations in F major on ‘Ein Mädchen oder Weibchen’ from Mozart’s Die Zauberflöte Op 66 [9'17]
10 Variations in E flat major on ‘Bei Männern, welche Liebe fühlen’ from Mozart’s Die Zauberflöte WoO46 [8'54]
Horn Sonata in F major Op 17 [14'14]
11 Allegro moderato [7'50]
12 Poco adagio, quasi andante [1'19]
13 Rondo: Allegro moderato [5'05]

LOGs:CD 1

Exact Audio Copy V1.0 beta 3 from 29. August 2011
EAC extraction logfile from 13. June 2014, 21:43
Steven Isserlis & Robert Levin / Beethoven: Cello Sonatas
Used drive : ASUS SDRW-08D2S-U Adapter: 1 ID: 0
Read mode : Secure
Utilize accurate stream : Yes
Defeat audio cache : Yes
Make use of C2 pointers : No
Read offset correction : 6
Overread into Lead-In and Lead-Out : No
Fill up missing offset samples with silence : Yes
Delete leading and trailing silent blocks : No
Null samples used in CRC calculations : Yes
Used interface : Installed external ASPI interface
Gap handling : Appended to previous track
Used output format : User Defined Encoder
Selected bitrate : 1024 kBit/s
Quality : High
Add ID3 tag : No
Command line compressor : C:\Program Files (x86)\Exact Audio Copy\Flac\flac.exe
Additional command line options : -8 -V -T "ARTIST=%artist%" -T "TITLE=%title%" -T "ALBUM=%albumtitle%" -T "DATE=%year%" -T "TRACKNUMBER=%tracknr%" -T "GENRE=%genre%" -T "PERFORMER=%albuminterpret%" -T "COMPOSER=%composer%" %haslyrics%--tag-from-file=LYRICS="%lyricsfile%"%haslyrics% -T "ALBUMARTIST=%albumartist%" -T "DISCNUMBER=%cdnumber%" -T "TOTALDISCS=%totalcds%" -T "TOTALTRACKS=%numtracks%" -T "COMMENT=%comment%" %source% -o %dest%
TOC of the extracted CD
Track | Start | Length | Start sector | End sector
---------------------------------------------------------
1 | 0:00.00 | 2:47.11 | 0 | 12535
2 | 2:47.11 | 14:11.18 | 12536 | 76378
3 | 16:58.29 | 7:02.54 | 76379 | 108082
4 | 24:01.08 | 5:19.59 | 108083 | 132066
5 | 29:20.67 | 14:12.43 | 132067 | 196009
6 | 43:33.35 | 9:16.25 | 196010 | 237734
7 | 52:49.60 | 12:35.18 | 237735 | 294377
8 | 65:25.03 | 5:24.30 | 294378 | 318707
9 | 70:49.33 | 1:31.01 | 318708 | 325533
10 | 72:20.34 | 7:28.10 | 325534 | 359143
Track 1
Filename C:\Ripipito\Steven Isserlis & Robert Levin - Cello Sonatas[2014]-FLAC\01 - Cello Sonata In F, Op. 5,1 - 1. Adagio Sostenuto.wav
Pre-gap length 0:00:02.00
Peak level 67.7 %
Extraction speed 1.0 X
Track quality 100.0 %
Test CRC 85614214
Copy CRC 85614214
Accurately ripped (confidence 4) [9CDA184E] (AR v2)
Copy OK
Track 2
Filename C:\Ripipito\Steven Isserlis & Robert Levin - Cello Sonatas[2014]-FLAC\02 - Cello Sonata In F, Op. 5,1 - 2. Allegro.wav
Peak level 99.8 %
Extraction speed 1.3 X
Track quality 99.9 %
Test CRC ECC010CF
Copy CRC ECC010CF
Accurately ripped (confidence 4) [ACDBC9DC] (AR v2)
Copy OK
Track 3
Filename C:\Ripipito\Steven Isserlis & Robert Levin - Cello Sonatas[2014]-FLAC\03 - Cello Sonata In F, Op. 5,1 - 3. Allegro Vivace.wav
Peak level 80.4 %
Extraction speed 1.5 X
Track quality 100.0 %
Test CRC 7658AF5A
Copy CRC 7658AF5A
Accurately ripped (confidence 4) [CC618683] (AR v2)
Copy OK
Track 4
Filename C:\Ripipito\Steven Isserlis & Robert Levin - Cello Sonatas[2014]-FLAC\04 - Cello Sonata In G Minor, Op. 5,2 - 1. Adagio Sostenuto & Espressivo.wav
Peak level 56.4 %
Extraction speed 1.5 X
Track quality 100.0 %
Test CRC F9772749
Copy CRC F9772749
Accurately ripped (confidence 4) [26E4770D] (AR v2)
Copy OK
Track 5
Filename C:\Ripipito\Steven Isserlis & Robert Levin - Cello Sonatas[2014]-FLAC\05 - Cello Sonata In G Minor, Op. 5,2 - 2. Allegro Molto Più Tosto Presto.wav
Peak level 100.0 %
Extraction speed 1.7 X
Track quality 99.9 %
Test CRC 7EB9C852
Copy CRC 7EB9C852
Accurately ripped (confidence 4) [69595819] (AR v2)
Copy OK
Track 6
Filename C:\Ripipito\Steven Isserlis & Robert Levin - Cello Sonatas[2014]-FLAC\06 - Cello Sonata In G Minor, Op. 5,2 - 3. Rondo- Allegro.wav
Peak level 88.7 %
Extraction speed 1.8 X
Track quality 100.0 %
Test CRC 90B62BA4
Copy CRC 90B62BA4
Accurately ripped (confidence 4) [4609F3F9] (AR v2)
Copy OK
Track 7
Filename C:\Ripipito\Steven Isserlis & Robert Levin - Cello Sonatas[2014]-FLAC\07 - Cello Sonata In A, Op. 69 - 1. Allegro, Ma Non Tanto.wav
Peak level 86.1 %
Extraction speed 2.0 X
Track quality 100.0 %
Test CRC 28CACFB3
Copy CRC 28CACFB3
Accurately ripped (confidence 3) [88D7FC06] (AR v2)
Copy OK
Track 8
Filename C:\Ripipito\Steven Isserlis & Robert Levin - Cello Sonatas[2014]-FLAC\08 - Cello Sonata In A, Op. 69 - 2. Scherzo- Allegro Molto.wav
Peak level 81.7 %
Extraction speed 1.9 X
Track quality 100.0 %
Test CRC E06787A9
Copy CRC E06787A9
Accurately ripped (confidence 4) [2B6DC9C8] (AR v2)
Copy OK
Track 9
Filename C:\Ripipito\Steven Isserlis & Robert Levin - Cello Sonatas[2014]-FLAC\09 - Cello Sonata In A, Op. 69 - 3. Adagio Cantabile.wav
Peak level 29.7 %
Extraction speed 1.5 X
Track quality 100.0 %
Test CRC E82DBB2D
Copy CRC E82DBB2D
Accurately ripped (confidence 4) [120D5170] (AR v2)
Copy OK
Track 10
Filename C:\Ripipito\Steven Isserlis & Robert Levin - Cello Sonatas[2014]-FLAC\10 - Cello Sonata In A, Op. 69 - 4. Allegro Vivace.wav
Peak level 91.9 %
Extraction speed 2.1 X
Track quality 100.0 %
Test CRC 45B4E35E
Copy CRC 45B4E35E
Accurately ripped (confidence 4) [706721E1] (AR v2)
Copy OK
All tracks accurately ripped
No errors occurred
End of status report
---- CUETools DB Plugin V2.1.3
[CTDB TOCID: gaGqC0.zkw21z7tLPaAgetsHU7c-] found, Submit result: gaGqC0.zkw21z7tLPaAgetsHU7c- has been confirmed
[b4fc75b7] (2/2) Accurately ripped
==== Log checksum 190DC97AE44119E0E22EA550DE03930532849555CE2457BAF6222CBFAC5B4C83 ====

CD 2

Exact Audio Copy V1.0 beta 3 from 29. August 2011
EAC extraction logfile from 14. June 2014, 7:48
Steven Isserlis & Robert Levin / Beethoven: Cello Sonatas
Used drive : ASUS SDRW-08D2S-U Adapter: 1 ID: 0
Read mode : Secure
Utilize accurate stream : Yes
Defeat audio cache : Yes
Make use of C2 pointers : No
Read offset correction : 6
Overread into Lead-In and Lead-Out : No
Fill up missing offset samples with silence : Yes
Delete leading and trailing silent blocks : No
Null samples used in CRC calculations : Yes
Used interface : Installed external ASPI interface
Gap handling : Appended to previous track
Used output format : User Defined Encoder
Selected bitrate : 1024 kBit/s
Quality : High
Add ID3 tag : No
Command line compressor : C:\Program Files (x86)\Exact Audio Copy\Flac\flac.exe
Additional command line options : -8 -V -T "ARTIST=%artist%" -T "TITLE=%title%" -T "ALBUM=%albumtitle%" -T "DATE=%year%" -T "TRACKNUMBER=%tracknr%" -T "GENRE=%genre%" -T "PERFORMER=%albuminterpret%" -T "COMPOSER=%composer%" %haslyrics%--tag-from-file=LYRICS="%lyricsfile%"%haslyrics% -T "ALBUMARTIST=%albumartist%" -T "DISCNUMBER=%cdnumber%" -T "TOTALDISCS=%totalcds%" -T "TOTALTRACKS=%numtracks%" -T "COMMENT=%comment%" %source% -o %dest%
TOC of the extracted CD
Track | Start | Length | Start sector | End sector
---------------------------------------------------------
1 | 0:00.00 | 2:53.74 | 0 | 13048
2 | 2:53.74 | 5:11.04 | 13049 | 36377
3 | 8:05.03 | 3:15.61 | 36378 | 51063
4 | 11:20.64 | 4:27.57 | 51064 | 71145
5 | 15:48.46 | 6:42.63 | 71146 | 101358
6 | 22:31.34 | 8:11.46 | 101359 | 138229
7 | 30:43.05 | 4:34.21 | 138230 | 158800
8 | 35:17.26 | 11:24.13 | 158801 | 210113
9 | 46:41.39 | 9:16.48 | 210114 | 251861
10 | 55:58.12 | 8:54.34 | 251862 | 291945
11 | 64:52.46 | 7:50.02 | 291946 | 327197
12 | 72:42.48 | 1:18.46 | 327198 | 333093
13 | 74:01.19 | 5:05.24 | 333094 | 355992
Track 1
Filename C:\Ripipito\Steven Isserlis & Robert Levin - Cello Sonatas[2014]-FLAC\11 - Cello Sonata In C, Op. 102,1 - 1. Andante.wav
Pre-gap length 0:00:02.00
Peak level 24.5 %
Extraction speed 2.7 X
Track quality 100.0 %
Test CRC BCE6C5C2
Copy CRC BCE6C5C2
Accurately ripped (confidence 3) [F03A0DEC] (AR v2)
Copy OK
Track 2
Filename C:\Ripipito\Steven Isserlis & Robert Levin - Cello Sonatas[2014]-FLAC\12 - Cello Sonata In C, Op. 102,1 - 2. Allegro Vivace.wav
Peak level 92.2 %
Extraction speed 2.7 X
Track quality 99.9 %
Test CRC FBDF1369
Copy CRC FBDF1369
Accurately ripped (confidence 4) [7BB3AD4B] (AR v2)
Copy OK
Track 3
Filename C:\Ripipito\Steven Isserlis & Robert Levin - Cello Sonatas[2014]-FLAC\13 - Cello Sonata In C, Op. 102,1 - 3. Adagio; Tempo D'Andante.wav
Peak level 43.9 %
Extraction speed 3.3 X
Track quality 100.0 %
Test CRC B0B83861
Copy CRC B0B83861
Accurately ripped (confidence 4) [2CAFED59] (AR v2)
Copy OK
Track 4
Filename C:\Ripipito\Steven Isserlis & Robert Levin - Cello Sonatas[2014]-FLAC\14 - Cello Sonata In C, Op. 102,1 - 4. Allegro Vivace.wav
Peak level 81.1 %
Extraction speed 3.6 X
Track quality 100.0 %
Test CRC 0224C3C6
Copy CRC 0224C3C6
Accurately ripped (confidence 4) [7C708AED] (AR v2)
Copy OK
Track 5
Filename C:\Ripipito\Steven Isserlis & Robert Levin - Cello Sonatas[2014]-FLAC\15 - Cello Sonata In D, Op. 102,2 - 1. Allegro Con Brio.wav
Peak level 96.7 %
Extraction speed 4.1 X
Track quality 100.0 %
Test CRC E046F6BE
Copy CRC E046F6BE
Accurately ripped (confidence 4) [2AE506F9] (AR v2)
Copy OK
Track 6
Filename C:\Ripipito\Steven Isserlis & Robert Levin - Cello Sonatas[2014]-FLAC\16 - Cello Sonata In D, Op. 102,2 - 2. Adagio Con Molto Sentimento D'Affetto.wav
Peak level 36.9 %
Extraction speed 4.5 X
Track quality 100.0 %
Test CRC 1EED1639
Copy CRC 1EED1639
Accurately ripped (confidence 4) [AB3ADB63] (AR v2)
Copy OK
Track 7
Filename C:\Ripipito\Steven Isserlis & Robert Levin - Cello Sonatas[2014]-FLAC\17 - Cello Sonata In D, Op. 102,2 - 3. Allegro; Allegro Fugato.wav
Peak level 97.3 %
Extraction speed 4.5 X
Track quality 100.0 %
Test CRC B86BB1B9
Copy CRC B86BB1B9
Accurately ripped (confidence 4) [5CC90F84] (AR v2)
Copy OK
Track 8
Filename C:\Ripipito\Steven Isserlis & Robert Levin - Cello Sonatas[2014]-FLAC\18 - Variations In G On See The Conqu'ring Hero Comes, WoO 45.wav
Peak level 95.4 %
Extraction speed 5.2 X
Track quality 100.0 %
Test CRC 2F8A0498
Copy CRC 2F8A0498
Accurately ripped (confidence 4) [5822E7FF] (AR v2)
Copy OK
Track 9
Filename C:\Ripipito\Steven Isserlis & Robert Levin - Cello Sonatas[2014]-FLAC\19 - Variations In F On Ein Mädchen Oder Weibchen, Op. 66.wav
Peak level 78.2 %
Extraction speed 5.6 X
Track quality 100.0 %
Test CRC A3E0B1A5
Copy CRC A3E0B1A5
Accurately ripped (confidence 4) [A891E061] (AR v2)
Copy OK
Track 10
Filename C:\Ripipito\Steven Isserlis & Robert Levin - Cello Sonatas[2014]-FLAC\20 - Variations In E Flat On Bei Männern, Welche Liebe Fühlen, WoO 46.wav
Peak level 91.8 %
Extraction speed 5.8 X
Track quality 100.0 %
Test CRC 66A6F646
Copy CRC 66A6F646
Accurately ripped (confidence 4) [FF5484CC] (AR v2)
Copy OK
Track 11
Filename C:\Ripipito\Steven Isserlis & Robert Levin - Cello Sonatas[2014]-FLAC\21 - Horn Sonata In F, Op. 17 - 1. Allegro Moderato.wav
Peak level 93.1 %
Extraction speed 6.0 X
Track quality 100.0 %
Test CRC 53948CA8
Copy CRC 53948CA8
Accurately ripped (confidence 4) [E0921B87] (AR v2)
Copy OK
Track 12
Filename C:\Ripipito\Steven Isserlis & Robert Levin - Cello Sonatas[2014]-FLAC\22 - Horn Sonata In F, Op. 17 - 2. Poco Adagio, Quasi Andante.wav
Peak level 64.0 %
Extraction speed 4.4 X
Track quality 100.0 %
Test CRC 545A02B3
Copy CRC 545A02B3
Accurately ripped (confidence 4) [70B1344D] (AR v2)
Copy OK
Track 13
Filename C:\Ripipito\Steven Isserlis & Robert Levin - Cello Sonatas[2014]-FLAC\23 - Horn Sonata In F, Op. 17 - 3. Rondo- Allegro Moderato.wav
Peak level 96.7 %
Extraction speed 6.0 X
Track quality 100.0 %
Test CRC E92A61BC
Copy CRC E92A61BC
Accurately ripped (confidence 4) [87636CD2] (AR v2)
Copy OK
All tracks accurately ripped
No errors occurred
End of status report
---- CUETools DB Plugin V2.1.3
[CTDB TOCID: EfUq0neub9jGn_CyoBbWnWRbb9s-] found, Submit result: EfUq0neub9jGn_CyoBbWnWRbb9s- has been confirmed
[489017e5] (2/2) Accurately ripped
==== Log checksum 9AD0A14D0E821CD8184405D1AC80EEDB5955F7EC86AB794EB6F89F7A66F962EC ====

LOG (.CUE):CD 1

REM GENRE Classical
REM DATE 2012
REM DISCID 7912B40A
REM COMMENT "ExactAudioCopy v1.0b3"
CATALOG 0034571179810
PERFORMER "Steven Isserlis & Robert Levin"
TITLE "Beethoven: Cello Sonatas"
FILE "01 - Cello Sonata In F, Op. 5,1 - 1. Adagio Sostenuto.wav" WAVE
TRACK 01 AUDIO
TITLE "Cello Sonata In F, Op. 5/1 - 1. Adagio Sostenuto"
PERFORMER "Steven Isserlis & Robert Levin"
ISRC GBAJY1498101
INDEX 01 00:00:00
FILE "02 - Cello Sonata In F, Op. 5,1 - 2. Allegro.wav" WAVE
TRACK 02 AUDIO
TITLE "Cello Sonata In F, Op. 5/1 - 2. Allegro"
PERFORMER "Steven Isserlis & Robert Levin"
ISRC GBAJY1498102
INDEX 01 00:00:00
FILE "03 - Cello Sonata In F, Op. 5,1 - 3. Allegro Vivace.wav" WAVE
TRACK 03 AUDIO
TITLE "Cello Sonata In F, Op. 5/1 - 3. Allegro Vivace"
PERFORMER "Steven Isserlis & Robert Levin"
ISRC GBAJY1498103
INDEX 01 00:00:00
FILE "04 - Cello Sonata In G Minor, Op. 5,2 - 1. Adagio Sostenuto & Espressivo.wav" WAVE
TRACK 04 AUDIO
TITLE "Cello Sonata In G Minor, Op. 5/2 - 1. Adagio Sostenuto & Espressivo"
PERFORMER "Steven Isserlis & Robert Levin"
ISRC GBAJY1498104
INDEX 01 00:00:00
FILE "05 - Cello Sonata In G Minor, Op. 5,2 - 2. Allegro Molto Piщ Tosto Presto.wav" WAVE
TRACK 05 AUDIO
TITLE "Cello Sonata In G Minor, Op. 5/2 - 2. Allegro Molto Piщ Tosto Presto"
PERFORMER "Steven Isserlis & Robert Levin"
ISRC GBAJY1498105
INDEX 01 00:00:00
FILE "06 - Cello Sonata In G Minor, Op. 5,2 - 3. Rondo- Allegro.wav" WAVE
TRACK 06 AUDIO
TITLE "Cello Sonata In G Minor, Op. 5/2 - 3. Rondo: Allegro"
PERFORMER "Steven Isserlis & Robert Levin"
ISRC GBAJY1498106
INDEX 01 00:00:00
FILE "07 - Cello Sonata In A, Op. 69 - 1. Allegro, Ma Non Tanto.wav" WAVE
TRACK 07 AUDIO
TITLE "Cello Sonata In A, Op. 69 - 1. Allegro, Ma Non Tanto"
PERFORMER "Steven Isserlis & Robert Levin"
ISRC GBAJY1498107
INDEX 01 00:00:00
FILE "08 - Cello Sonata In A, Op. 69 - 2. Scherzo- Allegro Molto.wav" WAVE
TRACK 08 AUDIO
TITLE "Cello Sonata In A, Op. 69 - 2. Scherzo: Allegro Molto"
PERFORMER "Steven Isserlis & Robert Levin"
ISRC GBAJY1498108
INDEX 01 00:00:00
FILE "09 - Cello Sonata In A, Op. 69 - 3. Adagio Cantabile.wav" WAVE
TRACK 09 AUDIO
TITLE "Cello Sonata In A, Op. 69 - 3. Adagio Cantabile"
PERFORMER "Steven Isserlis & Robert Levin"
ISRC GBAJY1498109
INDEX 01 00:00:00
FILE "10 - Cello Sonata In A, Op. 69 - 4. Allegro Vivace.wav" WAVE
TRACK 10 AUDIO
TITLE "Cello Sonata In A, Op. 69 - 4. Allegro Vivace"
PERFORMER "Steven Isserlis & Robert Levin"
ISRC GBAJY1498110
INDEX 01 00:00:00

CD 2

REM GENRE Classical
REM DATE 2014
REM DISCID BC128A0D
REM COMMENT "ExactAudioCopy v1.0b3"
CATALOG 0034571179810
PERFORMER "Steven Isserlis & Robert Levin"
TITLE "Beethoven: Cello Sonatas"
FILE "11 - Cello Sonata In C, Op. 102,1 - 1. Andante.wav" WAVE
TRACK 01 AUDIO
TITLE "Cello Sonata In C, Op. 102/1 - 1. Andante"
PERFORMER "Steven Isserlis & Robert Levin"
ISRC GBAJY1498201
INDEX 01 00:00:00
FILE "12 - Cello Sonata In C, Op. 102,1 - 2. Allegro Vivace.wav" WAVE
TRACK 02 AUDIO
TITLE "Cello Sonata In C, Op. 102/1 - 2. Allegro Vivace"
PERFORMER "Steven Isserlis & Robert Levin"
ISRC GBAJY1498202
INDEX 01 00:00:00
FILE "13 - Cello Sonata In C, Op. 102,1 - 3. Adagio; Tempo D'Andante.wav" WAVE
TRACK 03 AUDIO
TITLE "Cello Sonata In C, Op. 102/1 - 3. Adagio; Tempo D'Andante"
PERFORMER "Steven Isserlis & Robert Levin"
ISRC GBAJY1498203
INDEX 01 00:00:00
FILE "14 - Cello Sonata In C, Op. 102,1 - 4. Allegro Vivace.wav" WAVE
TRACK 04 AUDIO
TITLE "Cello Sonata In C, Op. 102/1 - 4. Allegro Vivace"
PERFORMER "Steven Isserlis & Robert Levin"
ISRC GBAJY1498204
INDEX 01 00:00:00
FILE "15 - Cello Sonata In D, Op. 102,2 - 1. Allegro Con Brio.wav" WAVE
TRACK 05 AUDIO
TITLE "Cello Sonata In D, Op. 102/2 - 1. Allegro Con Brio"
PERFORMER "Steven Isserlis & Robert Levin"
ISRC GBAJY1498205
INDEX 01 00:00:00
FILE "16 - Cello Sonata In D, Op. 102,2 - 2. Adagio Con Molto Sentimento D'Affetto.wav" WAVE
TRACK 06 AUDIO
TITLE "Cello Sonata In D, Op. 102/2 - 2. Adagio Con Molto Sentimento D'Affetto"
PERFORMER "Steven Isserlis & Robert Levin"
ISRC GBAJY1498206
INDEX 01 00:00:00
FILE "17 - Cello Sonata In D, Op. 102,2 - 3. Allegro; Allegro Fugato.wav" WAVE
TRACK 07 AUDIO
TITLE "Cello Sonata In D, Op. 102/2 - 3. Allegro; Allegro Fugato"
PERFORMER "Steven Isserlis & Robert Levin"
ISRC GBAJY1498207
INDEX 01 00:00:00
FILE "18 - Variations In G On See The Conqu'ring Hero Comes, WoO 45.wav" WAVE
TRACK 08 AUDIO
TITLE "Variations In G On See The Conqu'ring Hero Comes, WoO 45"
PERFORMER "Steven Isserlis & Robert Levin"
ISRC GBAJY1498208
INDEX 01 00:00:00
FILE "19 - Variations In F On Ein Mдdchen Oder Weibchen, Op. 66.wav" WAVE
TRACK 09 AUDIO
TITLE "Variations In F On Ein Mдdchen Oder Weibchen, Op. 66"
PERFORMER "Steven Isserlis & Robert Levin"
ISRC GBAJY1498209
INDEX 01 00:00:00
FILE "20 - Variations In E Flat On Bei Mдnnern, Welche Liebe Fьhlen, WoO 46.wav" WAVE
TRACK 10 AUDIO
TITLE "Variations In E Flat On Bei Mдnnern, Welche Liebe Fьhlen, WoO 46"
PERFORMER "Steven Isserlis & Robert Levin"
ISRC GBAJY1498210
INDEX 01 00:00:00
FILE "21 - Horn Sonata In F, Op. 17 - 1. Allegro Moderato.wav" WAVE
TRACK 11 AUDIO
TITLE "Horn Sonata In F, Op. 17 - 1. Allegro Moderato"
PERFORMER "Steven Isserlis & Robert Levin"
ISRC GBAJY1498211
INDEX 01 00:00:00
FILE "22 - Horn Sonata In F, Op. 17 - 2. Poco Adagio, Quasi Andante.wav" WAVE
TRACK 12 AUDIO
TITLE "Horn Sonata In F, Op. 17 - 2. Poco Adagio, Quasi Andante"
PERFORMER "Steven Isserlis & Robert Levin"
ISRC GBAJY1498212
INDEX 01 00:00:00
FILE "23 - Horn Sonata In F, Op. 17 - 3. Rondo- Allegro Moderato.wav" WAVE
TRACK 13 AUDIO
TITLE "Horn Sonata In F, Op. 17 - 3. Rondo: Allegro Moderato"
PERFORMER "Steven Isserlis & Robert Levin"
ISRC GBAJY1498213
INDEX 01 00:00:00
mp3
Studio Master 24-bit



Показать сообщения:    

Текущее время: 10-Дек 17:49

Часовой пояс: UTC + 3


Вы не можете начинать темы
Вы не можете отвечать на сообщения
Вы не можете редактировать свои сообщения
Вы не можете удалять свои сообщения
Вы не можете голосовать в опросах
Вы не можете прикреплять файлы к сообщениям
Вы не можете скачивать файлы