(Classical/Concerto/Violin) Прокофьев - Концерт для скрипки с оркестром №1, №2 / Prokofiev - Violin Concerto 1 Op.19, 2 Op.63 (Лидия Мордкович / Lydia Mordkovitch, Scottish National Orchestra, Neeme Jarvi) - 1989, FLAC (image+.cue) lossless


Статистика раздачи [Обновить пиров]
Размер:  198 MB   |    Зарегистрирован:  8 месяцев 23 дня   |    Скачан:  0 раз

Полного источника не было: Никогда

Личеров:  3  [  0 KB/s  ]   Подробная статистика пиров
 
   
 
 
 

[Цитировать]

Сергей Прокофьев - Концерты для скрипки с оркестром №1, №2 / Sergey Prokofiev - Violin Concertos 1 Op.19, 2 Op.63 (Лидия Мордкович / Lydia Mordkovitch, Scottish National Orchestra, Neeme Järvi)
Жанр: Classical/Concerto/Violin
Страна-производитель диска: Австрия
Год издания диска: 1989
Издатель (лейбл): Chandos
Номер по каталогу: CHAN 8709
Дата записи: 1988
Аудиокодек: FLAC
Тип рипа: image+.cue
Битрейт аудио: lossless
Продолжительность: 47:31
Источник: собственный рип
Наличие сканов в содержимом раздачи: да
Треклист:
Сергей Прокофьев / Sergey Prokofiev (1891-1953)
Violin Concerto No. 1 in D major Op. 19 21:45
D-Dur; ré majeur
1 I Andantino 09:26
2 II Scherzo: Vivacissimo 03:45
3 III Moderato 08:26
Violin Concerto No. 2 in G minor Op. 63 25:37
g-Moll; sol mineur
4 I Allegro moderato 10:19
5 II Andante assai 09:20
6 III Allegro, ben marcato 05:48
Исполнители:
Лидия Мордкович / Lydia Mordkovitch violin
Royal Scottish National Orchestra
Neeme Järvi

Лог создания рипа

Exact Audio Copy V1.0 beta 3 from 29. August 2011
Отчёт EAC об извлечении, выполненном 8. июня 2014, 18:58
Lydia Mordkovitch, Scottish National Orchestra, Neeme Järvi / Prokofiev - Violin Concertos
Дисковод: HL-DT-STDVDRAM GU71N Adapter: 2 ID: 0
Режим чтения : Достоверность
Использование точного потока : Да
Отключение кэша аудио : Да
Использование указателей C2 : Нет
Коррекция смещения при чтении : 6
Способность читать области Lead-in и Lead-out : Нет
Заполнение пропущенных сэмплов тишиной : Да
Удаление блоков с тишиной в начале и конце : Нет
При вычислениях CRC использовались нулевые сэмплы : Да
Интерфейс : Встроенный Win32-интерфейс для Win NT/2000
Выходной формат : Пользовательский кодировщик
Выбранный битрейт : 1024 kBit/s
Качество : Высокий
Добавление ID3-тега : Нет
Утилита сжатия : C:\Program Files (x86)\Exact Audio Copy\Flac\flac.exe
Дополнительные параметры : -8 -V -T "ALBUMARTIST=%albumartist%" -T "ALBUM=%albumtitle%" -T "DATE=%year%" -T "TRACKTOTAL=%numtracks%" -T "GENRE=%genre%" -T "COMMENT=%comment%" -T "PERFORMER=%albuminterpret%" -T "COMPOSER=%composer%" %source% -o %dest%
TOC извлечённого CD
Трек | Старт | Длительность | Начальный сектор | Конечный сектор
---------------------------------------------------------------------
1 | 0:00.32 | 9:31.40 | 32 | 42896
2 | 9:31.72 | 3:48.10 | 42897 | 60006
3 | 13:20.07 | 8:34.50 | 60007 | 98606
4 | 21:54.57 | 10:24.38 | 98607 | 145444
5 | 32:19.20 | 9:24.37 | 145445 | 187781
6 | 41:43.57 | 5:48.25 | 187782 | 213906
Характеристики диапазона извлечения и сообщения об ошибках
Выбранный диапазон
Имя файла H:\Rips\Prokofiev - Violin Concertos - Lydia Mordkovitch, Scottish National Orchestra, Neeme Jarvi CHAN 8709\Prokofiev - Violin Concertos.wav
Пиковый уровень 97.7 %
Скорость извлечения 1.9 X
Качество диапазона 100.0 %
CRC теста BF817D5F
CRC копии BF817D5F
Копирование... OK
Ошибок не произошло
AccurateRip: сводка
Трек 1 : извлечено точно (доверие 2) [766F259B] (AR v2)
Трек 2 : извлечено точно (доверие 2) [01E84524] (AR v2)
Трек 3 : извлечено точно (доверие 2) [A3D1B942] (AR v2)
Трек 4 : извлечено точно (доверие 2) [6154707D] (AR v2)
Трек 5 : извлечено точно (доверие 2) [B5145BBC] (AR v2)
Трек 6 : извлечено точно (доверие 2) [23258B28] (AR v2)
Все треки извлечены точно
Конец отчёта
==== Контрольная сумма отчёта 3F9F1235DD4D2B0C942C1568B08556F38D8DB3C4EDF9295FFE353B067EF63BB0 ====

Содержание индексной карты (.CUE)

REM GENRE Classical
REM DATE 1989
REM DISCID 410B2406
REM COMMENT "ExactAudioCopy v1.0b3"
PERFORMER "Lydia Mordkovitch, Scottish National Orchestra, Neeme Jarvi"
TITLE "Prokofiev - Violin Concertos"
FILE "Prokofiev - Violin Concertos.flac" WAVE
TRACK 01 AUDIO
TITLE "Violin Concerto no.1 in D major op.19 - I. Andantino"
PERFORMER "Lydia Mordkovitch, Scottish National Orchestra, Neeme Jarvi"
INDEX 00 00:00:00
INDEX 01 00:00:32
TRACK 02 AUDIO
TITLE "Violin Concerto no.1 in D major op.19 - II. Scherzo: Vivacissimo"
PERFORMER "Lydia Mordkovitch, Scottish National Orchestra, Neeme Jarvi"
INDEX 00 09:27:32
INDEX 01 09:31:72
TRACK 03 AUDIO
TITLE "Violin Concerto no.1 in D major op.19 - III. Moderato"
PERFORMER "Lydia Mordkovitch, Scottish National Orchestra, Neeme Jarvi"
INDEX 00 13:18:32
INDEX 01 13:20:07
TRACK 04 AUDIO
TITLE "Violin Concerto no.2 in G minor op.63 - I. Allegro moderato"
PERFORMER "Lydia Mordkovitch, Scottish National Orchestra, Neeme Jarvi"
INDEX 00 21:46:32
INDEX 01 21:54:57
TRACK 05 AUDIO
TITLE "Violin Concerto no.2 in G minor op.63 - II. Andante assai"
PERFORMER "Lydia Mordkovitch, Scottish National Orchestra, Neeme Jarvi"
INDEX 00 32:16:32
INDEX 01 32:19:20
TRACK 06 AUDIO
TITLE "Violin Concerto no.2 in G minor op.63 - III. Allegro, ben marcato"
PERFORMER "Lydia Mordkovitch, Scottish National Orchestra, Neeme Jarvi"
INDEX 00 41:40:32
INDEX 01 41:43:57
[teatrix.ru].t18800.torrent 
Торрент: Зарегистрирован [ 2016-03-18 12:06 ] · 9F9A0784F41CC3F1667CA31C1C3851A2CB3428B3

Скачать .torrent

Скачать

32 KB

Статус: проверено
Скачан: 0 раз
Размер: 198 MB
terms.php



Быстрый ответ

Имя:

      
Для отправки сообщений необходимо включить JavaScript
Показать сообщения:    

Текущее время: 11-Дек 11:07

Часовой пояс: UTC + 3


Вы можете начинать темы
Вы можете отвечать на сообщения
Вы не можете редактировать свои сообщения
Вы не можете удалять свои сообщения
Вы не можете голосовать в опросах
Вы не можете прикреплять файлы к сообщениям
Вы можете скачивать файлы