(Classical) Легенды России / Legends of Russia (Горностаева, Вишневская, Архипова, Баршай, Коган, Гилельс, Рихтер, Menuhin, Robeson, Ойстрах) - 1997, APE (image+.cue) lossless


 

[Цитировать]

Легенды России / Legends of Russia
Жанр: Classical
Страна-производитель диска: UK
Год издания диска: 1997
Издатель (лейбл): Revelation Records
Номер по каталогу: RV20002
Дата записи: 1946-1985
Аудиокодек: APE
Тип рипа: image+.cue
Битрейт аудио: lossless
Продолжительность: 70'35 + 74'30
Источник: собственный рип
Наличие сканов в содержимом раздачи: да
Треклист/Исполнители:

CD1

1. Gennady Rozhdestvensky conducts, Suite for orchestra, Op. 90 In Battle - Sergey Prokofiev (1941)
2. Rudolf Barshai performs, String Quartet No. 3 in F major, Op. 73 - Dmitry Shostakovich
3. Leonid Kogan performs, Preludes (3) for piano, Prelude No. 1 - George Gershwin
4. Emil Gilels performs, Gnomenreigen, for piano (Zwei Konzertetüden No. 2), S. 145/2 (LW A218/2), Gnomenreigen - Franz Liszt
5. Gennady Rozhdestvensky conducs Yuri Bashmet, Viola Concerto, 1. Andante comodo - William Walton
6. Dmitry Shostakovich performs, Prelude & Fugue for piano No. 2 in A minor, Op. 87/2 - Dmitry Shostakovich
7. Dmitry Kabalevsky conducts Pavel Kogan, Violin Concerto in C major, Op. 48, 1. Allegro - Dmitry Kabalevsky
8. Sviatoslav Richter performs, Piano Sonata No. 6 in A major ("War Sonata 1"), Op. 82, 2. Allegretto - Sergey Prokofiev
9. Evgeny Svetlanov conducts, Symphony No. 2, 1. Adagio - Rostislav Boiko
10. Galina Vishnevskaya and Mstislav Rostropovich perform, Satires (5), for soprano & piano, Op. 109, 2. Spring Awakening - Dmitry Shostakovich
11. Vera Gornostaeva performs, Piano Sonata No. 3 in B minor, Op. 58, CT. 203, 2. Scherzo - Frédéric Chopin
12. Pavel Kogan conducts Leonid Kogan, Violin Concerto, Op. 14, 2. Andante - Samuel Barber
13. Sviatoslav Richter performs, Fantasiestück ("Traumes Wirren"), for piano, Op. 12/7 - Robert Schumann
14. Alexander Gauk conducts, Symphony No. 8 in C minor, Op. 65 (Stalingrad) - Dmitry Shostakovich
15. Evgeny Svetlanov conducts, Symphony No. 1 in C major, 4. Finale - Mily Balakirev

CD2

1. Yuri Temirkanov conducts, Symphony No. 5 in D minor, Op. 47, 2. Allegretto - Dmitry Shostakovich
2. Emil Gilels performs, Fantasias (7) for piano, Op. 116, Capriccio in D minor - Johannes Brahms
3. David and Igor Oistrakh perform, Sonata for 2 violins in C major, Op. 56, 4. Allegro con brio - Sergey Prokofiev
4. Evgeny Kissin performs, Variations on the name "Abegg," for piano in F major, Op. 1 - Robert Schumann
5. Rudolf Barshai conducts, Brandenburg Concerto No. 4 in G major, BWV 1049, 3. Presto - Johann Sebastian Bach
6. Paul Robeson in concert, Ma Curly-headed Baby (Babby) for voice & piano - George H. Clutsam
7. Irina Arkhipova and Mario del Monaco sing, Carmen, opera, Seguidilla and Duet - Georges Bizet
8. Vladimir Ashkenazy performs, Piano Concerto No. 2 in G minor, Op. 16, 2. Scherzo - Sergey Prokofiev
9. Dmitry Shostakovich and Daniel Shafran perform, Sonata for cello & piano in D minor, Op. 40, 4. Allegro - Dmitry Shostakovich
10. Yehudi Menuhin and Igor Oistrakh perform, Concerto for 2 violins, strings & continuo in D minor ("Double"), BWV 1043, 1. Vivace - Johann Sebastian Bach
11. Emil Gilels performs, Piano Sonata No. 7 in D major, Op. 10/3, 1. Prestissimo - Ludwig van Beethoven
12. Alexander Lazarev conducts Victor Tretyakov, Violin Concerto No.1 in G minor, Op. 26, 3. Allegro energico - Max Bruch
13. Evgeny Kissin performs, Waltz for piano in E minor, KK IVa/15, CT. 222 (B. 56) - Frédéric Chopin
14. David Oistrakh conducts Mstislav Rostropovich, Cello Concerto No. 1 in E flat major, Op. 107, 1. Allegretto - Dmitry Shostakovich
15. Yevgeny Mravinsky conducts, Symphony No. 4 in F minor, Op. 36, 4. Finale - Pyotr Il'yich Tchaikovsky

Лог создания рипа

CD1

Exact Audio Copy V1.0 beta 3 from 29. August 2011
EAC extraction logfile from 17. June 2014, 10:48
Various / Legends of Russia
Used drive : TSSTcorpCDDVDW SE-208AB Adapter: 1 ID: 0
Read mode : Secure
Utilize accurate stream : Yes
Defeat audio cache : Yes
Make use of C2 pointers : No
Read offset correction : 6
Overread into Lead-In and Lead-Out : No
Fill up missing offset samples with silence : Yes
Delete leading and trailing silent blocks : No
Null samples used in CRC calculations : Yes
Used interface : Native Win32 interface for Win NT & 2000
Used output format : Monkey's Audio Lossless Encoder
Selected bitrate : High Lossless Compression
Quality : High
Add ID3 tag : No
Command line compressor : C:\Program Files (x86)\Exact Audio Copy\MAC\MAC.exe
TOC of the extracted CD
Track | Start | Length | Start sector | End sector
---------------------------------------------------------
1 | 0:00.00 | 5:00.17 | 0 | 22516
2 | 5:00.17 | 4:09.58 | 22517 | 41249
3 | 9:10.00 | 1:42.55 | 41250 | 48954
4 | 10:52.55 | 2:28.35 | 48955 | 60089
5 | 13:21.15 | 8:35.07 | 60090 | 98721
6 | 21:56.22 | 1:58.15 | 98722 | 107586
7 | 23:54.37 | 4:09.35 | 107587 | 126296
8 | 28:03.72 | 4:02.35 | 126297 | 144481
9 | 32:06.32 | 8:38.18 | 144482 | 183349
10 | 40:44.50 | 2:31.15 | 183350 | 194689
11 | 43:15.65 | 2:38.25 | 194690 | 206564
12 | 45:54.15 | 8:18.62 | 206565 | 243976
13 | 54:13.02 | 2:13.10 | 243977 | 253961
14 | 56:26.12 | 5:32.00 | 253962 | 278861
15 | 61:58.12 | 8:35.10 | 278862 | 317496
Range status and errors
Selected range
Filename D:\EAC\Various - Legends of Russia.wav
Peak level 98.1 %
Extraction speed 4.8 X
Range quality 100.0 %
Test CRC AFD8A6B3
Copy CRC AFD8A6B3
Copy OK
No errors occurred
AccurateRip summary
Track 1 accurately ripped (confidence 2) [54D64583] (AR v1)
Track 2 accurately ripped (confidence 2) [15F92C5F] (AR v1)
Track 3 accurately ripped (confidence 2) [D76FC765] (AR v1)
Track 4 accurately ripped (confidence 2) [71C1B048] (AR v1)
Track 5 accurately ripped (confidence 2) [3B4360CA] (AR v1)
Track 6 accurately ripped (confidence 2) [B79EE8E2] (AR v1)
Track 7 accurately ripped (confidence 2) [A88DEA61] (AR v1)
Track 8 accurately ripped (confidence 2) [10A06D05] (AR v1)
Track 9 accurately ripped (confidence 2) [0B1B80D8] (AR v1)
Track 10 accurately ripped (confidence 2) [ACC2BC81] (AR v1)
Track 11 accurately ripped (confidence 2) [736153DD] (AR v1)
Track 12 accurately ripped (confidence 2) [85B9D131] (AR v1)
Track 13 accurately ripped (confidence 2) [EE6EE615] (AR v1)
Track 14 accurately ripped (confidence 2) [82E0BE8D] (AR v1)
Track 15 accurately ripped (confidence 2) [3153781F] (AR v1)
All tracks accurately ripped
End of status report
---- CUETools DB Plugin V2.1.3
[CTDB TOCID: yg2xGdO_nG44UE4fqAQiYyv0AaI-] disk not present in database, Submit result: yg2xGdO_nG44UE4fqAQiYyv0AaI- has been uploaded
==== Log checksum DBFE09031645BE830F7A749244786B8266D8975D53395951C90614E665A17784 ====

CD2

Exact Audio Copy V1.0 beta 3 from 29. August 2011
EAC extraction logfile from 17. June 2014, 11:39
Various / Legends of Russia (Disc 2)
Used drive : HL-DT-STDVDRAM GH22NS50 Adapter: 0 ID: 2
Read mode : Secure
Utilize accurate stream : Yes
Defeat audio cache : Yes
Make use of C2 pointers : No
Read offset correction : 667
Overread into Lead-In and Lead-Out : No
Fill up missing offset samples with silence : Yes
Delete leading and trailing silent blocks : No
Null samples used in CRC calculations : Yes
Used interface : Native Win32 interface for Win NT & 2000
Used output format : Monkey's Audio Lossless Encoder
Selected bitrate : High Lossless Compression
Quality : High
Add ID3 tag : No
Command line compressor : C:\Program Files (x86)\Exact Audio Copy\MAC\MAC.exe
TOC of the extracted CD
Track | Start | Length | Start sector | End sector
---------------------------------------------------------
1 | 0:00.00 | 4:59.20 | 0 | 22444
2 | 4:59.20 | 2:05.47 | 22445 | 31866
3 | 7:04.67 | 5:14.25 | 31867 | 55441
4 | 12:19.17 | 7:21.38 | 55442 | 88554
5 | 19:40.55 | 5:44.00 | 88555 | 114354
6 | 25:24.55 | 2:33.72 | 114355 | 125901
7 | 27:58.52 | 4:19.70 | 125902 | 145396
8 | 32:18.47 | 2:42.48 | 145397 | 157594
9 | 35:01.20 | 4:10.00 | 157595 | 176344
10 | 39:11.20 | 4:41.67 | 176345 | 197486
11 | 43:53.12 | 6:58.05 | 197487 | 228841
12 | 50:51.17 | 7:01.28 | 228842 | 260444
13 | 57:52.45 | 2:38.15 | 260445 | 272309
14 | 60:30.60 | 6:02.37 | 272310 | 299496
15 | 66:33.22 | 7:50.65 | 299497 | 334811
Range status and errors
Selected range
Filename D:\EAC\Various - Legends of Russia (Disc 2).wav
Peak level 99.9 %
Extraction speed 2.0 X
Range quality 99.9 %
Test CRC 06EB97CA
Copy CRC 8B2B180F
Copy OK
No errors occurred
AccurateRip summary
Track 1 accurately ripped (confidence 2) [36825051] (AR v1)
Track 2 accurately ripped (confidence 2) [5B499708] (AR v1)
Track 3 cannot be verified as accurate (confidence 2) [0FE42DCD], AccurateRip returned [49DD87C1] (AR v2)
Track 4 accurately ripped (confidence 2) [58F92F3F] (AR v1)
Track 5 accurately ripped (confidence 2) [D46F935D] (AR v1)
Track 6 accurately ripped (confidence 2) [1B382E72] (AR v1)
Track 7 accurately ripped (confidence 2) [7B5344D5] (AR v1)
Track 8 accurately ripped (confidence 2) [57117264] (AR v1)
Track 9 accurately ripped (confidence 2) [E502B44C] (AR v1)
Track 10 accurately ripped (confidence 2) [22FEE8C5] (AR v1)
Track 11 accurately ripped (confidence 2) [76868278] (AR v1)
Track 12 accurately ripped (confidence 2) [537222DE] (AR v1)
Track 13 accurately ripped (confidence 2) [71A29728] (AR v1)
Track 14 accurately ripped (confidence 2) [3051E746] (AR v1)
Track 15 accurately ripped (confidence 2) [D05D8636] (AR v1)
14 track(s) accurately ripped
1 track(s) could not be verified as accurate
Some tracks could not be verified as accurate
End of status report
---- CUETools DB Plugin V2.1.3
[CTDB TOCID: GGMDRGjDdBHX45xgTcjc5gewv1k-] disk not present in database, Submit result: insufficient quality
==== Log checksum 65E7A43BC2DFFEC6BC48FF7E630DA65157FFF594C67D7F2C39A31874E0C4539B ====

Содержание индексной карты (.CUE)

CD1

REM GENRE Classical
REM DATE 1997
REM DISCID DC10890F
REM COMMENT "ExactAudioCopy v1.0b3"
PERFORMER "Various"
TITLE "Legends of Russia"
FILE "Various - Legends of Russia.ape" WAVE
TRACK 01 AUDIO
TITLE "Symphonic Suite 1941 [I. In Battle]"
PERFORMER "Sergey Prokofiev"
ISRC GBBJR9700844
INDEX 01 00:00:00
TRACK 02 AUDIO
TITLE "String Quartet No.3 in E, Op.73 [III. Allegro non troppo]"
PERFORMER "Dmitry Shostakovich"
ISRC GBBJR9700845
INDEX 00 04:57:17
INDEX 01 05:00:17
TRACK 03 AUDIO
TITLE "Prelude (from Porgy and Bess)"
PERFORMER "George Gershwin"
ISRC GBBJR9700846
INDEX 00 09:07:22
INDEX 01 09:10:00
TRACK 04 AUDIO
TITLE "Gnomenreigen (from Zwei Konzertetüden, S145)"
PERFORMER "Franz Liszt"
ISRC GBBJR9700847
INDEX 00 10:50:20
INDEX 01 10:52:55
TRACK 05 AUDIO
TITLE "Concerto for Viola and Orchestra in A minor [I. Andante comodo]"
PERFORMER "Sir William Walton"
ISRC GBBJR9700848
INDEX 00 13:19:15
INDEX 01 13:21:15
TRACK 06 AUDIO
TITLE "Prelude and Fugue in A minor"
PERFORMER "Dmitry Shostakovich"
ISRC GBBJR9700849
INDEX 00 21:52:42
INDEX 01 21:56:22
TRACK 07 AUDIO
TITLE "Violin Concerto [I. Allegro]"
PERFORMER "Dmitry Kabalevsky"
ISRC GBBJR9700850
INDEX 00 23:51:45
INDEX 01 23:54:37
TRACK 08 AUDIO
TITLE "Piano Sonata No.6 in A, Op.82 [II. Allegretto]"
PERFORMER "Sergey Prokofiev"
ISRC GBBJR9700851
INDEX 00 28:01:20
INDEX 01 28:03:72
TRACK 09 AUDIO
TITLE "Symphony No.2 [I. Adagio]"
PERFORMER "Rostislav Boiko"
ISRC GBBJR9700852
INDEX 00 32:04:17
INDEX 01 32:06:32
TRACK 10 AUDIO
TITLE "Satires, (Pictures of the Past) Op.109 [II. Spring Awakening]"
PERFORMER "Dimitry Shostakovich"
ISRC GBBJR9700853
INDEX 00 40:43:05
INDEX 01 40:44:50
TRACK 11 AUDIO
TITLE "Piano Sonata No.3 [II. Scherzo]"
PERFORMER "Fryderyck Chopin"
ISRC GBBJR9700854
INDEX 00 43:13:62
INDEX 01 43:15:65
TRACK 12 AUDIO
TITLE "Violin Concerto [II. Andante]"
PERFORMER "Samuel Barber"
ISRC GBBJR9700855
INDEX 00 45:51:45
INDEX 01 45:54:15
TRACK 13 AUDIO
TITLE "Fantasiestücke (Traumes Wirren)"
PERFORMER "Robert Schumann"
ISRC GBBJR9700856
INDEX 00 54:10:00
INDEX 01 54:13:02
TRACK 14 AUDIO
TITLE "Symphony No.8 in C minor, Op.65 [II. Allegretto]"
PERFORMER "Dmitry Shostakovich"
ISRC GBBJR9700857
INDEX 00 56:24:22
INDEX 01 56:26:12
TRACK 15 AUDIO
TITLE "Symphony No.1 in C [IV. Finale]"
PERFORMER "Mily Balakirev"
ISRC GBBJR9700858
INDEX 00 61:55:52
INDEX 01 61:58:12

CD2

REM GENRE Classical
REM DATE 1997
REM DISCID BD11700F
REM COMMENT "ExactAudioCopy v1.0b3"
PERFORMER "Various"
TITLE "Legends of Russia (Disc 2)"
FILE "Various - Legends of Russia (Disc 2).ape" WAVE
TRACK 01 AUDIO
TITLE "Symphonic No.5 in D minor [II. Allegretto]"
PERFORMER "Dmitry Shostakovich"
ISRC GBBJR9700859
INDEX 01 00:00:00
TRACK 02 AUDIO
TITLE "Capriccio in D minor [from Fantasy, Op.116]"
PERFORMER "Johannes Brahms"
ISRC GBBJR9700860
INDEX 00 04:57:35
INDEX 01 04:59:20
TRACK 03 AUDIO
TITLE "Sonata for Two Violins [IV. Allegro con brio]"
PERFORMER "Sergey Prokofiev"
ISRC GBBJR9700861
INDEX 00 07:02:50
INDEX 01 07:04:67
TRACK 04 AUDIO
TITLE "Theme and Variations on the Name of 'Abegg', Op.1"
PERFORMER "Franz Liszt"
ISRC GBBJR9700862
INDEX 00 12:16:45
INDEX 01 12:19:17
TRACK 05 AUDIO
TITLE "Brandenburg Concerto No.4 in G [III. Presto]"
PERFORMER "Johann Sebastian Bach"
ISRC GBBJR9700863
INDEX 00 19:38:47
INDEX 01 19:40:55
TRACK 06 AUDIO
TITLE "Curly Headed Baby (arr. Clutsam)"
PERFORMER "Paul Robeson (Soloist)"
ISRC GBBJR9700864
INDEX 00 25:22:60
INDEX 01 25:24:55
TRACK 07 AUDIO
TITLE "Seguidilla and Duet [from Carmen, Act 1]"
PERFORMER "Georges Bizet"
ISRC GBBJR9700865
INDEX 00 27:56:60
INDEX 01 27:58:52
TRACK 08 AUDIO
TITLE "Piano Concerto No.2 in G minor, Op.16 [IV. Allegro]"
PERFORMER "Sergey Prokofiev"
ISRC GBBJR9700866
INDEX 00 32:16:12
INDEX 01 32:18:47
TRACK 09 AUDIO
TITLE "Sonata for Cello and Piano in D minor, Op.40 [IV. Allegro]"
PERFORMER "Dimitry Shostakovich"
ISRC GBBJR9700867
INDEX 00 34:58:40
INDEX 01 35:01:20
TRACK 10 AUDIO
TITLE "Concerto for Two Violins and Strings in D minor [I. Vivace]"
PERFORMER "Johann Sebastian Bach"
ISRC GBBJR9700868
INDEX 00 39:08:25
INDEX 01 39:11:20
TRACK 11 AUDIO
TITLE "Piano Sonata No.7 in D, Op.10 No.3 [I. Prestissimo]"
PERFORMER "Ludwig Van Beethoven"
ISRC GBBJR9700869
INDEX 00 43:51:32
INDEX 01 43:53:12
TRACK 12 AUDIO
TITLE "Violin Concerto in G minor [III. Allegro energico]"
PERFORMER "Max Bruch"
ISRC GBBJR9700870
INDEX 00 50:48:05
INDEX 01 50:51:17
TRACK 13 AUDIO
TITLE "Waltz No.14 in E minor"
PERFORMER "Fryderyck Chopin"
ISRC GBBJR9700871
INDEX 00 57:50:20
INDEX 01 57:52:45
TRACK 14 AUDIO
TITLE "Cello Cencerto No.1 in E flat [I. Allegretto]"
PERFORMER "Dmitry Shostakovich"
ISRC GBBJR9700872
INDEX 00 60:28:47
INDEX 01 60:30:60
TRACK 15 AUDIO
TITLE "Symphony No.4 in F minor, Op.36 [IV. Finale]"
PERFORMER "Pyotr Il'yich Tchaikovsky"
ISRC GBBJR9700873
INDEX 00 66:30:22
INDEX 01 66:33:22



Показать сообщения:    

Текущее время: 05-Дек 01:18

Часовой пояс: UTC + 3


Вы не можете начинать темы
Вы не можете отвечать на сообщения
Вы не можете редактировать свои сообщения
Вы не можете удалять свои сообщения
Вы не можете голосовать в опросах
Вы не можете прикреплять файлы к сообщениям
Вы не можете скачивать файлы