(Classical) Schubert: 'Trout' Quintet • Hummel: Piano Quintet in E flat major - The Schubert Ensemble of London - 2012, FLAC (image+.cue) lossless


 

[Цитировать]

Schubert: 'Trout' Quintet • Hummel: Piano Quintet in E flat major - The Schubert Ensemble of London
Жанр: Classical
Страна-производитель диска: UK
Год издания диска: 2012
Издатель (лейбл): Hyperion
Номер по каталогу: CDH55427
Дата записи: 1988
Аудиокодек: FLAC
Тип рипа: image+.cue
Битрейт аудио: lossless
Продолжительность: 60:38
Источник: собственный рип
Наличие сканов в содержимом раздачи: да
Треклист:
Franz Schubert (1797-1828)
[1]-[5] Piano Quintet in A major 'Trout', D667
Johann Nepomuk Hummel (1778-1837)
[6]-[9] Piano Quintet in E flat major, Op.87
Исполнители:
The Schubert Ensemble of London
Jacqueline Shave violin
Roger Tapping viola
Jane Salmon cello
Peter Buckoke double bass
William Howard piano

Лог создания рипа

Exact Audio Copy V1.0 beta 3 from 29. August 2011
EAC extraction logfile from 17. June 2014, 17:27
The Schubert Ensemble of London / Schubert - Trout Quintet; Hummel - Piano Quintet
Used drive : HL-DT-STDVDRRW GWA-4164B Adapter: 5 ID: 0
Read mode : Secure
Utilize accurate stream : Yes
Defeat audio cache : Yes
Make use of C2 pointers : No
Read offset correction : 102
Overread into Lead-In and Lead-Out : No
Fill up missing offset samples with silence : Yes
Delete leading and trailing silent blocks : No
Null samples used in CRC calculations : Yes
Used interface : Native Win32 interface for Win NT & 2000
Used output format : User Defined Encoder
Selected bitrate : 896 kBit/s
Quality : High
Add ID3 tag : No
Command line compressor : C:\Program Files\Exact Audio Copy\FLAC\FLAC.EXE
Additional command line options : -V -8 %source%
TOC of the extracted CD
Track | Start | Length | Start sector | End sector
---------------------------------------------------------
1 | 0:00.00 | 13:42.03 | 0 | 61652
2 | 13:42.03 | 6:49.65 | 61653 | 92392
3 | 20:31.68 | 4:13.37 | 92393 | 111404
4 | 24:45.30 | 7:53.10 | 111405 | 146889
5 | 32:38.40 | 6:44.08 | 146890 | 177197
6 | 39:22.48 | 8:31.22 | 177198 | 215544
7 | 47:53.70 | 5:29.48 | 215545 | 240267
8 | 53:23.43 | 2:28.45 | 240268 | 251412
9 | 55:52.13 | 4:46.10 | 251413 | 272872
Range status and errors
Selected range
Filename D:\temp\Music\CDH55427 - Schubert - Trout Quintet; Hummel - Piano Quintet\Schubert - Trout Quintet; Hummel - Piano Quintet.wav
Peak level 92.9 %
Extraction speed 3.4 X
Range quality 100.0 %
Test CRC EA1C3BE9
Copy CRC EA1C3BE9
Copy OK
No errors occurred
AccurateRip summary
Track 1 cannot be verified as accurate (confidence 3) [770EE267], AccurateRip returned [CFAC90A8] (AR v2)
Track 2 cannot be verified as accurate (confidence 3) [17A3F1DE], AccurateRip returned [AEE82111] (AR v2)
Track 3 cannot be verified as accurate (confidence 3) [18DF12F7], AccurateRip returned [82079BE0] (AR v2)
Track 4 cannot be verified as accurate (confidence 3) [94EE8660], AccurateRip returned [C0CA3B2A] (AR v2)
Track 5 cannot be verified as accurate (confidence 3) [B8092D59], AccurateRip returned [64E36DCB] (AR v2)
Track 6 cannot be verified as accurate (confidence 3) [1AF676D0], AccurateRip returned [E030C1AB] (AR v2)
Track 7 cannot be verified as accurate (confidence 3) [E0EC0C60], AccurateRip returned [8073216B] (AR v2)
Track 8 cannot be verified as accurate (confidence 3) [84FB7414], AccurateRip returned [3225AA8C] (AR v2)
Track 9 cannot be verified as accurate (confidence 3) [0600C131], AccurateRip returned [C6E06ADA] (AR v2)
No tracks could be verified as accurate
You may have a different pressing from the one(s) in the database
End of status report
==== Log checksum E2FB1B4ACC3774AB343551B535AC0247E8E534A1AC8AA882414A6988E81B8791 ====



Показать сообщения:    

Текущее время: 10-Дек 09:59

Часовой пояс: UTC + 3


Вы не можете начинать темы
Вы не можете отвечать на сообщения
Вы не можете редактировать свои сообщения
Вы не можете удалять свои сообщения
Вы не можете голосовать в опросах
Вы не можете прикреплять файлы к сообщениям
Вы не можете скачивать файлы