(Classical, contemporary) Bryce Dessner - Aheym; Little Blue Something; Tenebre; Tour Eiffel - Kronos Quartet, Brooklyn Youth Chorus, Dianne Berkun - 2013, FLAC (image+.cue) lossless


 

[Цитировать]

Bryce Dessner - Aheym; Little Blue Something; Tenebre; Tour Eiffel - Kronos Quartet, Brooklyn Youth Chorus, Dianne Berkun
Жанр: Classical, contemporary
Страна-производитель диска: The Netherlands
Год издания диска: 2013
Издатель (лейбл): Anti
Дата записи: 2012
Аудиокодек: FLAC
Тип рипа: image+.cue
Битрейт аудио: lossless
Продолжительность: 44:34
Источник: собственный рип
Наличие сканов в содержимом раздачи: да
Треклист:
Bryce Dessner
[1] Aheym
[2] Little Blue Something
[3] Tenebre
[4] Tour Eiffel
Исполнители:
Kronos Quartet
David Harrington violin
John Sherba violin
Hank Dutt viola
Jeffrey Zeigler cello
with
Brooklyn Youth Chorus
Dianne Berkun artistic director & founder
David Cossin percussion
Bryce Dessner guitar
Lisa Kaplan piano
Dave Nelson trombone

Лог создания рипа

Exact Audio Copy V1.0 beta 3 from 29. August 2011
EAC extraction logfile from 10. June 2014, 17:32
Kronos Quartet / Bryce Dessner - Aheym
Used drive : HL-DT-STDVDRRW GWA-4164B Adapter: 5 ID: 0
Read mode : Secure
Utilize accurate stream : Yes
Defeat audio cache : Yes
Make use of C2 pointers : No
Read offset correction : 102
Overread into Lead-In and Lead-Out : No
Fill up missing offset samples with silence : Yes
Delete leading and trailing silent blocks : No
Null samples used in CRC calculations : Yes
Used interface : Native Win32 interface for Win NT & 2000
Used output format : User Defined Encoder
Selected bitrate : 896 kBit/s
Quality : High
Add ID3 tag : No
Command line compressor : C:\Program Files\Exact Audio Copy\FLAC\FLAC.EXE
Additional command line options : -V -8 %source%
TOC of the extracted CD
Track | Start | Length | Start sector | End sector
---------------------------------------------------------
1 | 0:00.00 | 9:59.49 | 0 | 44973
2 | 9:59.49 | 7:56.26 | 44974 | 80699
3 | 17:56.00 | 15:11.09 | 80700 | 149033
4 | 33:07.09 | 11:26.54 | 149034 | 200537
Range status and errors
Selected range
Filename D:\temp\Music\Bryce Dessner - Aheym\Bryce Dessner - Aheym.wav
Peak level 98.8 %
Extraction speed 2.5 X
Range quality 100.0 %
Test CRC BD52B37A
Copy CRC BD52B37A
Copy OK
No errors occurred
AccurateRip summary
Track 1 accurately ripped (confidence 9) [2EBC19EE] (AR v2)
Track 2 accurately ripped (confidence 9) [75B5A3CF] (AR v2)
Track 3 accurately ripped (confidence 9) [3BBDEAED] (AR v2)
Track 4 accurately ripped (confidence 9) [4225F7E9] (AR v2)
All tracks accurately ripped
End of status report
==== Log checksum 53C830BB6609C0E9E14CE866269EC0819900CD7D9BA09DBE4AC1E3DB0C114C57 ====



Показать сообщения:    

Текущее время: 10-Дек 10:01

Часовой пояс: UTC + 3


Вы не можете начинать темы
Вы не можете отвечать на сообщения
Вы не можете редактировать свои сообщения
Вы не можете удалять свои сообщения
Вы не можете голосовать в опросах
Вы не можете прикреплять файлы к сообщениям
Вы не можете скачивать файлы