(Classical) Nicola Fiorenza - Concerti & Sonate - Dolce & Tempesta, Stefano Demicheli - 2008, FLAC (image+.cue) lossless


 

[Цитировать]

Nicola Fiorenza - Concerti & Sonate - Dolce & Tempesta, Stefano Demicheli
Жанр: Classical
Страна-производитель диска: France
Год издания диска: 2008
Издатель (лейбл): Fuga Libera
Номер по каталогу: FUG549
Дата записи: 2008
Аудиокодек: FLAC
Тип рипа: image+.cue
Битрейт аудио: lossless
Продолжительность: 66:37
Источник: собственный рип
Наличие сканов в содержимом раздачи: да
Треклист:
Nicola Fiorenza (ca.1700-1764)
[1]-[4] Concerto in fa minore di flauto, violini, violetta, violoncello e basso
[5]-[8] Concerto in re maggiore con due violini, violoncello obbligato e basso
[9]-[12] Concerto in la minore a tre violini e basso
[13]-[16] Sonata in sol maggiore per violino e continuo
[17]-[20] Concerto in re maggiore con due violini, viola, violoncello obbligato e basso
[21]-[24] Sinfonia in la minore a flauto, due violini e basso
Исполнители:
Dolce & Tempesta
Stefano Demicheli

Лог создания рипа

Exact Audio Copy V1.0 beta 3 from 29. August 2011
EAC extraction logfile from 28. May 2014, 8:38
Dolce & Tempesta, Stefano Demicheli / Fiorenza - Concerti & Sonate
Used drive : HL-DT-STDVDRAM GSA-4083N Adapter: 1 ID: 0
Read mode : Secure
Utilize accurate stream : Yes
Defeat audio cache : Yes
Make use of C2 pointers : No
Read offset correction : 667
Overread into Lead-In and Lead-Out : No
Fill up missing offset samples with silence : Yes
Delete leading and trailing silent blocks : No
Null samples used in CRC calculations : Yes
Used interface : Native Win32 interface for Win NT & 2000
Used output format : User Defined Encoder
Selected bitrate : 896 kBit/s
Quality : High
Add ID3 tag : No
Command line compressor : C:\Program Files\Exact Audio Copy\Flac\flac.exe
Additional command line options : -V -8 %source%
TOC of the extracted CD
Track | Start | Length | Start sector | End sector
---------------------------------------------------------
1 | 0:00.00 | 2:19.50 | 0 | 10474
2 | 2:19.50 | 4:39.48 | 10475 | 31447
3 | 6:59.23 | 4:15.08 | 31448 | 50580
4 | 11:14.31 | 2:10.46 | 50581 | 60376
5 | 13:25.02 | 3:44.05 | 60377 | 77181
6 | 17:09.07 | 2:41.30 | 77182 | 89286
7 | 19:50.37 | 2:11.36 | 89287 | 99147
8 | 22:01.73 | 2:43.47 | 99148 | 111419
9 | 24:45.45 | 2:38.50 | 111420 | 123319
10 | 27:24.20 | 2:25.54 | 123320 | 134248
11 | 29:49.74 | 1:56.31 | 134249 | 142979
12 | 31:46.30 | 1:25.20 | 142980 | 149374
13 | 33:11.50 | 5:38.03 | 149375 | 174727
14 | 38:49.53 | 2:10.10 | 174728 | 184487
15 | 40:59.63 | 3:01.68 | 184488 | 198130
16 | 44:01.56 | 3:35.66 | 198131 | 214321
17 | 47:37.47 | 3:25.74 | 214322 | 229770
18 | 51:03.46 | 1:42.22 | 229771 | 237442
19 | 52:45.68 | 2:18.31 | 237443 | 247823
20 | 55:04.24 | 2:20.64 | 247824 | 258387
21 | 57:25.13 | 3:04.67 | 258388 | 272254
22 | 60:30.05 | 2:14.08 | 272255 | 282312
23 | 62:44.13 | 3:02.10 | 282313 | 295972
24 | 65:46.23 | 1:10.29 | 295973 | 301251
Range status and errors
Selected range
Filename J:\New Music\Fiorenza - Concerti & Sonate\Fiorenza - Concerti & Sonate.wav
Peak level 97.9 %
Extraction speed 2.7 X
Range quality 100.0 %
Test CRC 2E37C656
Copy CRC 2E37C656
Copy OK
No errors occurred
AccurateRip summary
Track 1 accurately ripped (confidence 3) [07CDBCE9] (AR v2)
Track 2 accurately ripped (confidence 3) [D1F09757] (AR v2)
Track 3 accurately ripped (confidence 3) [E6159AD1] (AR v2)
Track 4 accurately ripped (confidence 3) [EB2C631C] (AR v2)
Track 5 accurately ripped (confidence 3) [25561C34] (AR v2)
Track 6 accurately ripped (confidence 3) [5401E770] (AR v2)
Track 7 accurately ripped (confidence 3) [F50583CF] (AR v2)
Track 8 accurately ripped (confidence 3) [6856B3F3] (AR v2)
Track 9 accurately ripped (confidence 3) [806A4B19] (AR v2)
Track 10 accurately ripped (confidence 3) [5B9FC6E7] (AR v2)
Track 11 accurately ripped (confidence 3) [ABAF3578] (AR v2)
Track 12 accurately ripped (confidence 3) [ED9DDD5B] (AR v2)
Track 13 accurately ripped (confidence 3) [6BA4891F] (AR v2)
Track 14 accurately ripped (confidence 3) [8F501609] (AR v2)
Track 15 accurately ripped (confidence 3) [040022F5] (AR v2)
Track 16 accurately ripped (confidence 3) [D3721D3B] (AR v2)
Track 17 accurately ripped (confidence 3) [5FC352A5] (AR v2)
Track 18 accurately ripped (confidence 3) [E80AD998] (AR v2)
Track 19 accurately ripped (confidence 3) [82D7ABF3] (AR v2)
Track 20 accurately ripped (confidence 3) [39850DAB] (AR v2)
Track 21 accurately ripped (confidence 3) [09F610E3] (AR v2)
Track 22 accurately ripped (confidence 3) [42FE7C85] (AR v2)
Track 23 accurately ripped (confidence 3) [1FA09833] (AR v2)
Track 24 accurately ripped (confidence 3) [E8C9F68B] (AR v2)
All tracks accurately ripped
End of status report
==== Log checksum BA7C4B48F7521D45A634A769209105A4BB85C72BA430B166BDAD4B6F57CDFA41 ====



Показать сообщения:    

Текущее время: 11-Дек 11:06

Часовой пояс: UTC + 3


Вы не можете начинать темы
Вы не можете отвечать на сообщения
Вы не можете редактировать свои сообщения
Вы не можете удалять свои сообщения
Вы не можете голосовать в опросах
Вы не можете прикреплять файлы к сообщениям
Вы не можете скачивать файлы