Знаменитые семьи - семья Ли: Поступки говорят сами за себя (Брюс Ли) / "Famous Families" The Lees: Action Speaks Louder [25 октября 1999, документальный фильм, TVRip]


Статистика раздачи [Обновить пиров]
Размер:  1.49 GB   |    Зарегистрирован:  8 месяцев 16 дней   |    Скачан:  0 раз

Полного источника не было: Никогда

Личеров:  3  [  0 KB/s  ]   Подробная статистика пиров
 
   
 
 
 

[Цитировать]

Знаменитые семьи - семья Ли: Поступки говорят сами за себя (Брюс Ли) / "Famous Families" The Lees: Action Speaks Louder
Дата/Год выпуска: 25 октября 1999
Страна: США
Жанр: документальный фильм
Продолжительность: 00:42:51
Перевод: Авторский (одноголосый закадровый): Владлен Басистый
Телеканал: Prometheus Entertainment
Описание: Вашему вниманию предоставляется документальный фильм о семье Брюса Ли - о его жене Линде, сыне Брэндоне и дочери Шэннон а так же о тех всех друзьях и фанатах на которых Брюс оказал влияние своей жизненной философией и своим боевым искусством Джит Кун До..
качество: TVRip
формат: MPG
Видео: Video: MPEG2 Video: Width : 720 pixels Height : 576 pixels, Bit rate : 4 608 Kbps, Maximum bit rate : 6 000 Kbps, Standard : PAL
Аудио: Audio: MPEG Audio 48000Hz Bit rate : 224 Kb
Видео сэмпл
отредактировал: Arsenal15

Скриншоты

MediaInfo

[pre]General
Format : MPEG-PS
File size : 1.48 GiB
Duration : 42mn 50s
Overall bit rate mode : Variable
Overall bit rate : 4 930 Kbps
Video
ID : 224 (0xE0)
Format : MPEG Video
Format version : Version 2
Format profile : Main@Main
Format settings, BVOP : Yes
Format settings, Matrix : Default
Format settings, GOP : M=3, N=12
Duration : 42mn 50s
Bit rate mode : Variable
Bit rate : 4 608 Kbps
Maximum bit rate : 6 000 Kbps
Width : 720 pixels
Height : 576 pixels
Display aspect ratio : 4:3
Frame rate : 25.000 fps
Standard : PAL
Color space : YUV
Chroma subsampling : 4:2:0
Bit depth : 8 bits
Scan type : Interlaced
Scan order : Bottom Field First
Compression mode : Lossy
Bits/(Pixel*Frame) : 0.444
Time code of first frame : 00:00:00:00
Time code source : Group of pictures header
Stream size : 1.38 GiB (93%)
Audio
ID : 192 (0xC0)
Format : MPEG Audio
Format version : Version 1
Format profile : Layer 2
Duration : 42mn 50s
Bit rate mode : Constant
Bit rate : 224 Kbps
Channel(s) : 2 channels
Sampling rate : 48.0 KHz
Compression mode : Lossy
Delay relative to video : -80ms
Stream size : 68.6 MiB (5%)
[teatrix.ru].t18822.torrent 
Торрент: Зарегистрирован [ 2016-03-18 12:08 ] · 755508E02E2CD940777D1CF175544B8908AE0F93

Скачать .torrent

Скачать

16 KB

Статус: проверено
Скачан: 0 раз
Размер: 1.49 GB
terms.php



Быстрый ответ

Имя:

      
Для отправки сообщений необходимо включить JavaScript
Показать сообщения:    

Текущее время: 04-Дек 09:09

Часовой пояс: UTC + 3


Вы можете начинать темы
Вы можете отвечать на сообщения
Вы не можете редактировать свои сообщения
Вы не можете удалять свои сообщения
Вы не можете голосовать в опросах
Вы не можете прикреплять файлы к сообщениям
Вы можете скачивать файлы