(Classical) Krzysztof Penderecki - Sextet; Clarinet Quartet; Divertimento for Solo Cello - Michel Lethiec, Regis Pasquier, Bruno Pasquier, Arto Noras, Markus Maskuniitty, Juhani Lagerspetz - 2003, FLAC (image+.cue) lossless


 

[Цитировать]

Krzysztof Penderecki - Sextet; Clarinet Quartet; Divertimento for Solo Cello - Michel Lethiec, Régis Pasquier, Bruno Pasquier, Arto Noras, Markus Maskuniitty, Juhani Lagerspetz
Жанр: Classical
Год издания диска: 2003
Издатель (лейбл): Naxos
Номер по каталогу: 8.557052
Дата записи: 2001
Аудиокодек: FLAC
Тип рипа: image+.cue
Битрейт аудио: lossless
Продолжительность: 67:48
Источник: собственный рип
Наличие сканов в содержимом раздачи: да
Треклист:
Krzysztof Penderecki (b.1933)
[1]-[2] Sextet for Clarinet, Horn, Violin, Viola, Cello and Piano (2000)
[3]-[6] Clarinet Quartet (1993)
[7]-[9] Three Miniatures for Clarinet and Piano (1956)
[10]-[13] Divertimento for Solo Cello (1994)
[14] Prelude for Solo Clarinet (1959)
Исполнители:
Michel Lethiec clarinet
Régis Pasquier violin
Bruno Pasquier viola
Arto Noras cello
Markus Maskuniitty french horn
Juhani Lagerspetz piano

Лог создания рипа

Exact Audio Copy V1.0 beta 3 from 29. August 2011
EAC extraction logfile from 4. April 2014, 18:03
Michel Lethiec, Regis Pasquier, Bruno Pasquier, Arto Noras, Markus Maskuniitty, Juhani Lagerspetz / Penderecki - Sextet; Clarinet Quartet
Used drive : HL-DT-STDVDRRW GWA-4164B Adapter: 5 ID: 0
Read mode : Secure
Utilize accurate stream : Yes
Defeat audio cache : Yes
Make use of C2 pointers : No
Read offset correction : 102
Overread into Lead-In and Lead-Out : No
Fill up missing offset samples with silence : Yes
Delete leading and trailing silent blocks : No
Null samples used in CRC calculations : Yes
Used interface : Native Win32 interface for Win NT & 2000
Used output format : User Defined Encoder
Selected bitrate : 896 kBit/s
Quality : High
Add ID3 tag : No
Command line compressor : C:\Program Files\Exact Audio Copy\FLAC\FLAC.EXE
Additional command line options : -V -8 %source%
TOC of the extracted CD
Track | Start | Length | Start sector | End sector
---------------------------------------------------------
1 | 0:00.00 | 10:12.55 | 0 | 45954
2 | 10:12.55 | 21:37.07 | 45955 | 143236
3 | 31:49.62 | 3:28.35 | 143237 | 158871
4 | 35:18.22 | 2:29.28 | 158872 | 170074
5 | 37:47.50 | 1:29.02 | 170075 | 176751
6 | 39:16.52 | 8:37.68 | 176752 | 215594
7 | 47:54.45 | 0:59.52 | 215595 | 220071
8 | 48:54.22 | 1:43.05 | 220072 | 227801
9 | 50:37.27 | 1:25.63 | 227802 | 234239
10 | 52:03.15 | 3:07.70 | 234240 | 248334
11 | 55:11.10 | 1:57.22 | 248335 | 257131
12 | 57:08.32 | 3:30.15 | 257132 | 272896
13 | 60:38.47 | 3:54.25 | 272897 | 290471
14 | 64:32.72 | 3:49.03 | 290472 | 307649
Range status and errors
Selected range
Filename D:\temp\Music\Naxos_8.557052 - Penderecki - Sextet; Clarinet Quartet\Penderecki - Sextet; Clarinet Quartet.wav
Peak level 93.9 %
Extraction speed 3.0 X
Range quality 100.0 %
Test CRC EF7E626C
Copy CRC EF7E626C
Copy OK
No errors occurred
AccurateRip summary
Track 1 accurately ripped (confidence 5) [AF00A558] (AR v2)
Track 2 accurately ripped (confidence 5) [8BDE7FAC] (AR v2)
Track 3 accurately ripped (confidence 5) [D701738E] (AR v2)
Track 4 accurately ripped (confidence 5) [F1BBC0F0] (AR v2)
Track 5 accurately ripped (confidence 5) [B8731808] (AR v2)
Track 6 accurately ripped (confidence 5) [D23772BA] (AR v2)
Track 7 accurately ripped (confidence 5) [9E57144A] (AR v2)
Track 8 accurately ripped (confidence 5) [1940AAD2] (AR v2)
Track 9 accurately ripped (confidence 5) [67159AC5] (AR v2)
Track 10 accurately ripped (confidence 5) [3E5793D5] (AR v2)
Track 11 accurately ripped (confidence 5) [989595BA] (AR v2)
Track 12 accurately ripped (confidence 5) [F2EECBD1] (AR v2)
Track 13 accurately ripped (confidence 5) [AD89ECC8] (AR v2)
Track 14 accurately ripped (confidence 5) [831399D9] (AR v2)
All tracks accurately ripped
End of status report
==== Log checksum F649B8BD295B22F7355AF2A9E48D76AAC84F8AF0CB7AF96D6C4F4394D7CF8044 ====



Показать сообщения:    

Текущее время: 04-Дек 02:56

Часовой пояс: UTC + 3


Вы не можете начинать темы
Вы не можете отвечать на сообщения
Вы не можете редактировать свои сообщения
Вы не можете удалять свои сообщения
Вы не можете голосовать в опросах
Вы не можете прикреплять файлы к сообщениям
Вы не можете скачивать файлы