(Concerto) Il Diario di Chiara: Porta, Vivaldi, Porpora, Martinelli, Latilla, Perotti, Bernasconi (Fabio Biondi) - 2014, APE (image+.cue) lossless


Статистика раздачи [Обновить пиров]
Размер:  385 MB   |    Зарегистрирован:  8 месяцев 21 день   |    Скачан:  0 раз

Полного источника не было: Никогда

Личеров:  3  [  0 KB/s  ]   Подробная статистика пиров
 
   
 
 
 

[Цитировать]

Il Diario di Chiara: Porta, Vivaldi, Porpora, Martinelli, Latilla, Perotti, Bernasconi (Fabio Biondi)
Жанр: Concerto
Страна-производитель диска: Austria
Год издания диска: 2014
Издатель (лейбл): Glossa
Номер по каталогу: GCD 923401
Дата записи: 2013
Аудиокодек: APE
Тип рипа: image+.cue
Битрейт аудио: lossless
Продолжительность: 72:30
Источник: собственный рип
Наличие сканов в содержимом раздачи: нет
Треклист:
01-03. Porta - Sinfonia for strings in D major
04-06. Vivaldi - Sinfonia for strings in G major RV 149 'Il Coro delle muse'
07-08. Porpora - Sinfonia a tre in G major
09-11. Vivaldi - Concerto for Violin in B flat major RV 372 'Per la S.ra Chiara'
12-14. Martinelli - Concerto for Viola d'amore in D major, 'Per la S.ra Chiaretta'
15-17. Martinelli - Concerto for Violin in E major, 'dedicato all S.ra Chiara'
18-20. Latilla - Sinfonia in G major
21. Perotti - Grave for Violin & Organ in G minor
22-24. Bernasconi - Sinfonia for strings in D major
Исполнители:
Europa Galante
Fabio Biondi, violin & viola d'amore

Лог создания рипа

Exact Audio Copy V0.99 prebeta 5 from 4. May 2009
EAC extraction logfile from 26. June 2014, 17:51
Fabio Biondi / Il Diario di Chiara
Used drive : HL-DT-STDVDRAM GH24NS95 Adapter: 0 ID: 0
Read mode : Secure
Utilize accurate stream : Yes
Defeat audio cache : Yes
Make use of C2 pointers : No
Read offset correction : 6
Overread into Lead-In and Lead-Out : No
Fill up missing offset samples with silence : Yes
Delete leading and trailing silent blocks : No
Null samples used in CRC calculations : Yes
Used interface : Native Win32 interface for Win NT & 2000
Used output format : Internal WAV Routines
Sample format : 44.100 Hz; 16 Bit; Stereo
TOC of the extracted CD
Track | Start | Length | Start sector | End sector
---------------------------------------------------------
1 | 0:00.00 | 1:38.42 | 0 | 7391
2 | 1:38.42 | 1:49.64 | 7392 | 15630
3 | 3:28.31 | 1:24.31 | 15631 | 21961
4 | 4:52.62 | 1:54.40 | 21962 | 30551
5 | 6:47.27 | 1:35.21 | 30552 | 37697
6 | 8:22.48 | 3:01.59 | 37698 | 51331
7 | 11:24.32 | 1:49.33 | 51332 | 59539
8 | 13:13.65 | 4:17.17 | 59540 | 78831
9 | 17:31.07 | 4:42.35 | 78832 | 100016
10 | 22:13.42 | 3:45.60 | 100017 | 116951
11 | 25:59.27 | 3:55.49 | 116952 | 134625
12 | 29:55.01 | 4:14.48 | 134626 | 153723
13 | 34:09.49 | 3:06.18 | 153724 | 167691
14 | 37:15.67 | 3:58.20 | 167692 | 185561
15 | 41:14.12 | 6:30.07 | 185562 | 214818
16 | 47:44.19 | 3:06.19 | 214819 | 228787
17 | 50:50.38 | 4:40.02 | 228788 | 249789
18 | 55:30.40 | 2:11.63 | 249790 | 259677
19 | 57:42.28 | 2:19.29 | 259678 | 270131
20 | 60:01.57 | 2:37.46 | 270132 | 281952
21 | 62:39.28 | 2:56.71 | 281953 | 295223
22 | 65:36.24 | 2:09.18 | 295224 | 304916
23 | 67:45.42 | 2:59.67 | 304917 | 318408
24 | 70:45.34 | 1:43.10 | 318409 | 326143
Range status and errors
Selected range
Filename C:\Fabio Biondi - Il Diario di Chiara.wav
Peak level 93.6 %
Range quality 100.0 %
Test CRC 3D46F6E3
Copy CRC 3D46F6E3
Copy OK
No errors occurred
End of status report
[teatrix.ru].t18831.torrent 
Торрент: Зарегистрирован [ 2016-03-18 12:07 ] · DD936F30A94F661271CEBB3D1A0074513DD6A8F2

Скачать .torrent

Скачать

16 KB

Статус: проверено
Скачан: 0 раз
Размер: 385 MB
terms.php



Быстрый ответ

Имя:

      
Для отправки сообщений необходимо включить JavaScript
Показать сообщения:    

Текущее время: 08-Дек 17:24

Часовой пояс: UTC + 3


Вы можете начинать темы
Вы можете отвечать на сообщения
Вы не можете редактировать свои сообщения
Вы не можете удалять свои сообщения
Вы не можете голосовать в опросах
Вы не можете прикреплять файлы к сообщениям
Вы можете скачивать файлы