ЖЗЛ. Жизнь замечательных людей: Георгий Данелия, Родион Щедрин (2 выпуска) (Майрам Юсупова, Дмитрий Смирнов) [2000 - 2001, документально-биографический, DVB]


Статистика раздачи [Обновить пиров]
Размер:  1.45 GB   |    Зарегистрирован:  8 месяцев 16 дней   |    Скачан:  0 раз

Полного источника не было: Никогда

Личеров:  3  [  0 KB/s  ]   Подробная статистика пиров
 
   
 
 
 

[Цитировать]

ЖЗЛ
Жизнь замечательных людей- Дата/Год выпуска: 2000 - 2001
Страна: Россия
Жанр: документально-биографический
Продолжительность: 00:56:02 (2 по ~00:28:00)
Перевод: Не требуется
Русские субтитры: нетРежиссер: Майрам Юсупова, Дмитрий Смирнов
Телеканал: Время: далекое и близкое
Описание: Выходивший в 1996-2002 годы цикл фильмов "ЖЗЛ" создавал портреты современников, россиян или людей, имеющих российские корни. Эрнст Неизвестный, Михаил Шемякин, Зиновии Гердт, Галина Волчек, Муслим Магомаев, Михаил Жванецкий, Андрей Кончаловский, Евгений Лебедев, Олег Ефремов, Белла Ахмадулина, Борис Мессерер - каждое из этих имен является для нас, своего рода, символом неповторимой эпохи. Каждый из этих художников, артистов, поэтов не имеет, по большому счету, оснований - быть недовольным своей судьбой. Но как чувствуют себя эти известные, достигшие успеха люди сегодня, в 90-е годы?
Особенность цикла в том, что создатели фильмов предлагают зрителю открыть для себя неизвестные стороны жизни своих кумиров, увидеть их вне сферы профессиональных интересов, прочувствовать мир человеческих переживаний и ощущений героя.
Каждый получасовой фильм - это, прежде всего портрет. В каждом из фильмов два главных героя - человек и время. Это своеобразная "фотография на память", но фотография, сделанная не под софитами фотоателье, а на фоне времени, в котором живем мы и наши герои. (Энциклопедия сайта Кино-Театр)
Доп. информация: DVB-S

качество: DVB
формат: MKV
Видео: MPEG Video 2, 720x576@768x576 (4:3), 25 fps, ~3353 kbps avg, 0.323 bit/pixel
Аудио: 48 kHz, MPEG Audio 2, 2 ch, ~192.00 kbps avg

Список выпусков/серийГеоргий Данелия (2000)

Продолжительность: 00:28:02
Режиссер: Майрам Юсупова
Описание: Документальный фильм об одном из любимейших советских/российских режиссеров — Георгии Данелии. Сам Георгий Николаевич говорит, что никогда не снимал комедии. На его фильмы всегда формально принадлежали к комедийному жанру, потому, что под комедию давали больше пленки. "А вообще-то я работал только над двумя комедиями, — рассказывает сам режиссер, — я снял сатирический фильм "Тридцать три" и вместе с Викторией Токаревой написал сценарий картины "Джентльмены удачи". Вот это, я считаю, были комедии. А какая, к черту, комедия "Осенний марафон"?!"

Скриншоты

Резервные скриншоты

Родион Щедрин (2001)

Продолжительность: 00:28:00
Режиссер: Дмитрий Смирнов
Описание: Родион Щедрин – один из самых крупных и известных композиторов второй половины ХХ века. Владея острым современным музыкальным языком, он смог создать произведения, доступные и широким кругам слушателей. Намеренная антиавангардная установка на слушателя пронизывает творчество Щедрина на протяжении всей жизни: "большая музыка должна иметь большую аудиторию".

Скриншоты

Резервные скриншоты

MediaInfo

Общее
Уникальный идентификатор : 196021332158927084170288831904520231334 (0x937855D878E9CEEC83567D3EA0A259A6)
Полное имя : E:\My Torrents 2\[apreder]LGP_Lifes_of_great_people\[apreder]LGP_Georgiy_Daneliya(2000)DVB.mkv
Формат : Matroska
Версия формата : Version 2
Размер файла : 725 Мбайт
Продолжительность : 28 м.
Режим общего битрейта : Переменный
Общий поток : 3617 Кбит/сек
Дата кодирования : UTC 2014-06-27 15:34:32
Программа кодирования : mkvmerge v7.0.0 ('Where We Going') 64bit built on Jun 9 2014 15:16:27
Библиотека кодирования : libebml v1.3.0 + libmatroska v1.4.1
Видео
Идентификатор : 1
Формат : MPEG Video
Версия формата : Version 2
Профиль формата : Main@Main
Параметр BVOP формата : Нет
Параметр матрицы формата : Выборочная
Идентификатор кодека : V_MPEG2
Идентификатор кодека/Информация : MPEG 1 or 2 Video
Продолжительность : 28 м.
Вид битрейта : Переменный
Битрейт : 3353 Кбит/сек
Максимальный битрейт : 4196 Кбит/сек
Ширина : 720 пикселей
Высота : 576 пикселей
Соотношение сторон : 4:3
Режим частоты кадров : Постоянный
Частота кадров : 25,000 кадров/сек
Стандарт вещания : PAL
Цветовое пространство : YUV
Субдискретизация насыщенности : 4:2:0
Битовая глубина : 8 бит
Тип развёртки : Чересстрочная
Порядок развёртки : Верхнее поле первое
Метод сжатия : С потерями
Бит/(Пиксели*Кадры) : 0.323
Временной код первого кадра : 00:00:00:00
Оригинал временного кода : Group of pictures header
Размер потока : 672 Мбайт (93%)
Default : Да
Forced : Нет
Аудио
Идентификатор : 2
Формат : MPEG Audio
Версия формата : Version 1
Профиль формата : Layer 2
Идентификатор кодека : A_MPEG/L2
Идентификатор кодека/Подсказка : MP2
Продолжительность : 28 м.
Вид битрейта : Постоянный
Битрейт : 192 Кбит/сек
Каналы : 2 канала
Частота : 48,0 КГц
Метод сжатия : С потерями
Размер потока : 38,5 Мбайт (5%)
Язык : Russian
Default : Да
Forced : Нет
-

Внимание! Раздача ведётся путём добавления новых выпусков

Внимание! Раздача ведётся путём добавления новых выпусков; при каждом добавлении создаётся новый торрент. Чтобы начать докачку нового выпуска, пользователям необходимо сделать следующее:
(1) остановить скачивание,
(2) удалить старый торрент у себя из клиента (старые серии удалять не надо),
(3) скачать новый торрент и запустить его у себя в клиенте вместо старого, при этом указать клиенту путь в старую папку куда и должно происходить скачивание новых выпусков.
Ваш клиент при этом должен произвести хеширование (проверку) старой папки (если не производит сам - помогите ему сделать это). В результате он будет докачивать только те выпуски, которых у Вас ещё нет. Старые выпуски при этом не удаляются, а продолжают раздаваться!
Eсли Вы уже удалили старые выпуски, то предотвратить их повторную закачку можно, сняв галочки в соответствующих местах при запуске нового торрента. По возможности, желательно не удалять старые выпуски как можно дольше, чтобы релизёр не только продолжал раздавать старые выпуски, но и смог сконцентрироваться на новых.
-[1'480]
[teatrix.ru].t18833.torrent 
Торрент: Зарегистрирован [ 2016-03-18 12:07 ] · AF085E1F94B9C6954BBD2AAB8F5D542C49F4AE4D

Скачать .torrent

Скачать

15 KB

Статус: проверено
Скачан: 0 раз
Размер: 1.45 GB
terms.php



Быстрый ответ

Имя:

      
Для отправки сообщений необходимо включить JavaScript
Показать сообщения:    

Текущее время: 03-Дек 12:39

Часовой пояс: UTC + 3


Вы можете начинать темы
Вы можете отвечать на сообщения
Вы не можете редактировать свои сообщения
Вы не можете удалять свои сообщения
Вы не можете голосовать в опросах
Вы не можете прикреплять файлы к сообщениям
Вы можете скачивать файлы