(Classical) Elgar - String Quartet; Bridge - Idylls; Walton - String Quartet (Coull String Quartet) - 2006, FLAC (tracks+.cue) lossless


 

[Цитировать]

Elgar - String Quartet; Bridge - Idylls; Walton - String Quartet (Coull String Quartet)
Жанр: Classical
Год издания диска: 2006
Издатель (лейбл): Helios
Номер по каталогу: 55218
Аудиокодек: FLAC
Тип рипа: tracks+.cue
Битрейт аудио: lossless
Продолжительность: 01:12:41
Источник: скачано из сети
Наличие сканов в содержимом раздачи: да
Исполнители:
Coull String Quartet
Треклист:
01. Elgar, String Quartet in e op. 38 - I. Allegro Moderato (9:41)
02. II. Piacevole (9:35)
03. III. Allegro Molto (10:06)
04. Bridge, 3 Idylls - I. Adagio Molto Espressivo (8:04)
05. II. Allegretto Poco Lento (3:07)
06. III. Allegro con moto (3:59)
07. Walton, String Quartet in a - I. Allegro (9:59)
08. II. Presto (3:53)
09. III. Lento (9:49)
10. IV. Allegro Molto (4:21)

LOG XLD:

X Lossless Decoder version 20131102 (145.0)
XLD extraction logfile from 2013-11-21 00:07:46 -0500
Coull Quartet / Elgar String 4tet / Bridge Idylls / Walton String 4tet
Used drive : OPTIARC DVD RW AD-5680H (revision 3AHF)
Media type : Pressed CD
Ripper mode : XLD Secure Ripper
Disable audio cache : OK for the drive with a cache less than 1375KiB
Make use of C2 pointers : NO
Read offset correction : 48
Max retry count : 20
Gap status : Analyzed, Appended (except HTOA)
TOC of the extracted CD
Track | Start | Length | Start sector | End sector
---------------------------------------------------------
1 | 00:00:33 | 09:41:20 | 33 | 43627
2 | 09:41:53 | 09:35:47 | 43628 | 86799
3 | 19:17:25 | 10:06:63 | 86800 | 132312
4 | 29:24:13 | 08:04:70 | 132313 | 168682
5 | 37:29:08 | 03:07:55 | 168683 | 182762
6 | 40:36:63 | 03:59:15 | 182763 | 200702
7 | 44:36:03 | 09:59:37 | 200703 | 245664
8 | 54:35:40 | 03:53:05 | 245665 | 263144
9 | 58:28:45 | 09:49:38 | 263145 | 307357
10 | 68:18:08 | 04:21:10 | 307358 | 326942
List of alternate offset correction values
# | Absolute | Relative | Confidence
------------------------------------------
1 | 712 | 664 | 3
AccurateRip Summary (DiscID: 001de092-00e85259-8911070a)
Track 01 : OK (v1+v2, confidence 4/7)
Track 02 : OK (v1+v2, confidence 4/7)
Track 03 : OK (v1+v2, confidence 4/7)
Track 04 : OK (v1+v2, confidence 4/7)
Track 05 : OK (v1+v2, confidence 4/7)
Track 06 : OK (v1+v2, confidence 4/7)
Track 07 : OK (v1+v2, confidence 4/7)
Track 08 : OK (v1+v2, confidence 4/7)
Track 09 : OK (v1+v2, confidence 4/6)
Track 10 : OK (v1, confidence 2/5)
->All tracks accurately ripped.
All Tracks
Album gain : 2.48 dB
Peak : 0.906281
Statistics
Read error : 0
Jitter error (maybe fixed) : 0
Retry sector count : 0
Damaged sector count : 0
Track 01
Filename : /Volumes/Big Daddy II/XLD rips/Coull Quartet - Elgar String 4tet / Bridge Idylls / Walton String 4tet (1993) [FLAC]/01 Elgar String Quartet in e op. 38 - I - Allegro Moderato.flac
Pre-gap length : 00:02:33
Track gain : 1.55 dB
Peak : 0.701569
CRC32 hash (test run) : 25E51A40
CRC32 hash : 25E51A40
CRC32 hash (skip zero) : 0FE15F11
AccurateRip v1 signature : B0AE830F
AccurateRip v2 signature : 214282D6
->Accurately ripped (v1+v2, confidence 2+2/7)
Statistics
Read error : 0
Jitter error (maybe fixed) : 0
Retry sector count : 0
Damaged sector count : 0
Track 02
Filename : /Volumes/Big Daddy II/XLD rips/Coull Quartet - Elgar String 4tet / Bridge Idylls / Walton String 4tet (1993) [FLAC]/02 Elgar String Quartet in e op. 38 - II - Piacevole.flac
Pre-gap length : 00:04:28
Track gain : 2.73 dB
Peak : 0.623444
CRC32 hash (test run) : 49435B58
CRC32 hash : 49435B58
CRC32 hash (skip zero) : 67A96DF8
AccurateRip v1 signature : 4BE50EA9
AccurateRip v2 signature : D8C6CBF4
->Accurately ripped (v1+v2, confidence 2+2/7)
Statistics
Read error : 0
Jitter error (maybe fixed) : 0
Retry sector count : 0
Damaged sector count : 0
Track 03
Filename : /Volumes/Big Daddy II/XLD rips/Coull Quartet - Elgar String 4tet / Bridge Idylls / Walton String 4tet (1993) [FLAC]/03 Elgar String Quartet in e op. 38 - III - Allegro Molto.flac
Pre-gap length : 00:02:62
Track gain : 0.71 dB
Peak : 0.906281
CRC32 hash (test run) : D7C86C34
CRC32 hash : D7C86C34
CRC32 hash (skip zero) : 6DD905D8
AccurateRip v1 signature : B195EF53
AccurateRip v2 signature : B9323CFA
->Accurately ripped (v1+v2, confidence 2+2/7)
Statistics
Read error : 0
Jitter error (maybe fixed) : 0
Retry sector count : 0
Damaged sector count : 0
Track 04
Filename : /Volumes/Big Daddy II/XLD rips/Coull Quartet - Elgar String 4tet / Bridge Idylls / Walton String 4tet (1993) [FLAC]/04 Bridge 3 Idylls - I - Adagio Molto Espressivo.flac
Pre-gap length : 00:06:53
Track gain : 4.76 dB
Peak : 0.546387
CRC32 hash (test run) : 264B9DD2
CRC32 hash : 264B9DD2
CRC32 hash (skip zero) : CB567381
AccurateRip v1 signature : 3973AEE4
AccurateRip v2 signature : 7E1438A6
->Accurately ripped (v1+v2, confidence 2+2/7)
Statistics
Read error : 0
Jitter error (maybe fixed) : 0
Retry sector count : 0
Damaged sector count : 0
Track 05
Filename : /Volumes/Big Daddy II/XLD rips/Coull Quartet - Elgar String 4tet / Bridge Idylls / Walton String 4tet (1993) [FLAC]/05 Bridge 3 Idylls - II - Allegretto Poco Lento.flac
Pre-gap length : 00:02:48
Track gain : 5.31 dB
Peak : 0.661163
CRC32 hash (test run) : 1AC1FB8D
CRC32 hash : 1AC1FB8D
CRC32 hash (skip zero) : 85D8433A
AccurateRip v1 signature : 646D19B5
AccurateRip v2 signature : 59282079
->Accurately ripped (v1+v2, confidence 2+2/7)
Statistics
Read error : 0
Jitter error (maybe fixed) : 0
Retry sector count : 0
Damaged sector count : 0
Track 06
Filename : /Volumes/Big Daddy II/XLD rips/Coull Quartet - Elgar String 4tet / Bridge Idylls / Walton String 4tet (1993) [FLAC]/06 Bridge 3 Idylls - III - Allegro con moto.flac
Pre-gap length : 00:01:53
Track gain : 0.90 dB
Peak : 0.819672
CRC32 hash (test run) : 7FB9C995
CRC32 hash : 7FB9C995
CRC32 hash (skip zero) : 58F36AF0
AccurateRip v1 signature : D3A46E29
AccurateRip v2 signature : A189E000
->Accurately ripped (v1+v2, confidence 2+2/7)
Statistics
Read error : 0
Jitter error (maybe fixed) : 0
Retry sector count : 0
Damaged sector count : 0
Track 07
Filename : /Volumes/Big Daddy II/XLD rips/Coull Quartet - Elgar String 4tet / Bridge Idylls / Walton String 4tet (1993) [FLAC]/07 Walton String Quartet in a - I - Allegro.flac
Pre-gap length : 00:08:63
Track gain : 4.01 dB
Peak : 0.652649
CRC32 hash (test run) : E060448F
CRC32 hash : E060448F
CRC32 hash (skip zero) : 0FE599BB
AccurateRip v1 signature : 6355F077
AccurateRip v2 signature : ADB9EF6B
->Accurately ripped (v1+v2, confidence 2+2/7)
Statistics
Read error : 0
Jitter error (maybe fixed) : 0
Retry sector count : 0
Damaged sector count : 0
Track 08
Filename : /Volumes/Big Daddy II/XLD rips/Coull Quartet - Elgar String 4tet / Bridge Idylls / Walton String 4tet (1993) [FLAC]/08 Walton String Quartet in a - II - Presto.flac
Pre-gap length : 00:06:42
Track gain : 3.64 dB
Peak : 0.578705
CRC32 hash (test run) : 0481E2DB
CRC32 hash : 0481E2DB
CRC32 hash (skip zero) : 39595C39
AccurateRip v1 signature : C9770AB3
AccurateRip v2 signature : AB327A53
->Accurately ripped (v1+v2, confidence 2+2/7)
Statistics
Read error : 0
Jitter error (maybe fixed) : 0
Retry sector count : 0
Damaged sector count : 0
Track 09
Filename : /Volumes/Big Daddy II/XLD rips/Coull Quartet - Elgar String 4tet / Bridge Idylls / Walton String 4tet (1993) [FLAC]/09 Walton String Quartet in a - III - Lento.flac
Pre-gap length : 00:02:15
Track gain : 6.91 dB
Peak : 0.506866
CRC32 hash (test run) : 4CD5677B
CRC32 hash : 4CD5677B
CRC32 hash (skip zero) : D3984A95
AccurateRip v1 signature : F3341139
AccurateRip v2 signature : C0D73BC5
->Accurately ripped (v1+v2, confidence 2+2/6)
Statistics
Read error : 0
Jitter error (maybe fixed) : 0
Retry sector count : 0
Damaged sector count : 0
Track 10
Filename : /Volumes/Big Daddy II/XLD rips/Coull Quartet - Elgar String 4tet / Bridge Idylls / Walton String 4tet (1993) [FLAC]/10 Walton String Quartet in a - IV - Allegro Molto.flac
Pre-gap length : 00:02:10
Track gain : 1.56 dB
Peak : 0.756439
CRC32 hash (test run) : 8AF56BD5
CRC32 hash : 8AF56BD5
CRC32 hash (skip zero) : D0FCDFFC
AccurateRip v1 signature : FCF4C152
AccurateRip v2 signature : CDE716A7
->Accurately ripped (v1, confidence 2/5)
Statistics
Read error : 0
Jitter error (maybe fixed) : 0
Retry sector count : 0
Damaged sector count : 0
No errors occurred
End of status report
-----BEGIN XLD SIGNATURE-----
EzlSpcTkmJ4kMxf6220qnLrUnQ9QRQDFmIY2EBuysyK8vCtN2GP8TTYmd81kuIqq9Asd49FvGx7hIKi4MeU.2qXl_nldfS7DEOLYGNm
-----END XLD SIGNATURE-----

LOG (.CUE):

TITLE "Elgar String 4tet / Bridge Idylls / Walton String 4tet"
PERFORMER "Coull Quartet"
REM DATE "1993"
REM DISCID 8911070A
REM REPLAYGAIN_ALBUM_GAIN 2.48 dB
REM REPLAYGAIN_ALBUM_PEAK 0.906281
FILE "01 Elgar String Quartet in e op. 38 - I - Allegro Moderato.flac" WAVE
TRACK 01 AUDIO
TITLE "Elgar String Quartet in e op. 38 - I - Allegro Moderato"
PERFORMER "Coull Quartet"
ISRC GBAJY9471801
REM REPLAYGAIN_TRACK_GAIN 1.55 dB
REM REPLAYGAIN_TRACK_PEAK 0.701569
PREGAP 00:00:33
INDEX 01 00:00:00
TRACK 02 AUDIO
TITLE "Elgar String Quartet in e op. 38 - II - Piacevole"
PERFORMER "Coull Quartet"
ISRC GBAJY9471802
REM REPLAYGAIN_TRACK_GAIN 2.73 dB
REM REPLAYGAIN_TRACK_PEAK 0.623444
INDEX 00 09:36:67
FILE "02 Elgar String Quartet in e op. 38 - II - Piacevole.flac" WAVE
INDEX 01 00:00:00
TRACK 03 AUDIO
TITLE "Elgar String Quartet in e op. 38 - III - Allegro Molto"
PERFORMER "Coull Quartet"
ISRC GBAJY9471803
REM REPLAYGAIN_TRACK_GAIN 0.71 dB
REM REPLAYGAIN_TRACK_PEAK 0.906281
INDEX 00 09:32:60
FILE "03 Elgar String Quartet in e op. 38 - III - Allegro Molto.flac" WAVE
INDEX 01 00:00:00
TRACK 04 AUDIO
TITLE "Bridge 3 Idylls - I - Adagio Molto Espressivo"
PERFORMER "Coull Quartet"
ISRC GBAJY9471804
REM REPLAYGAIN_TRACK_GAIN 4.76 dB
REM REPLAYGAIN_TRACK_PEAK 0.546387
INDEX 00 10:00:10
FILE "04 Bridge 3 Idylls - I - Adagio Molto Espressivo.flac" WAVE
INDEX 01 00:00:00
TRACK 05 AUDIO
TITLE "Bridge 3 Idylls - II - Allegretto Poco Lento"
PERFORMER "Coull Quartet"
ISRC GBAJY9471805
REM REPLAYGAIN_TRACK_GAIN 5.31 dB
REM REPLAYGAIN_TRACK_PEAK 0.661163
INDEX 00 08:02:22
FILE "05 Bridge 3 Idylls - II - Allegretto Poco Lento.flac" WAVE
INDEX 01 00:00:00
TRACK 06 AUDIO
TITLE "Bridge 3 Idylls - III - Allegro con moto"
PERFORMER "Coull Quartet"
ISRC GBAJY9471806
REM REPLAYGAIN_TRACK_GAIN 0.90 dB
REM REPLAYGAIN_TRACK_PEAK 0.819672
INDEX 00 03:06:02
FILE "06 Bridge 3 Idylls - III - Allegro con moto.flac" WAVE
INDEX 01 00:00:00
TRACK 07 AUDIO
TITLE "Walton String Quartet in a - I - Allegro"
PERFORMER "Coull Quartet"
ISRC GBAJY9471807
REM REPLAYGAIN_TRACK_GAIN 4.01 dB
REM REPLAYGAIN_TRACK_PEAK 0.652649
INDEX 00 03:50:27
FILE "07 Walton String Quartet in a - I - Allegro.flac" WAVE
INDEX 01 00:00:00
TRACK 08 AUDIO
TITLE "Walton String Quartet in a - II - Presto"
PERFORMER "Coull Quartet"
ISRC GBAJY9471808
REM REPLAYGAIN_TRACK_GAIN 3.64 dB
REM REPLAYGAIN_TRACK_PEAK 0.578705
INDEX 00 09:52:70
FILE "08 Walton String Quartet in a - II - Presto.flac" WAVE
INDEX 01 00:00:00
TRACK 09 AUDIO
TITLE "Walton String Quartet in a - III - Lento"
PERFORMER "Coull Quartet"
ISRC GBAJY9471809
REM REPLAYGAIN_TRACK_GAIN 6.91 dB
REM REPLAYGAIN_TRACK_PEAK 0.506866
INDEX 00 03:50:65
FILE "09 Walton String Quartet in a - III - Lento.flac" WAVE
INDEX 01 00:00:00
TRACK 10 AUDIO
TITLE "Walton String Quartet in a - IV - Allegro Molto"
PERFORMER "Coull Quartet"
ISRC GBAJY9471810
REM REPLAYGAIN_TRACK_GAIN 1.56 dB
REM REPLAYGAIN_TRACK_PEAK 0.756439
INDEX 00 09:47:28
FILE "10 Walton String Quartet in a - IV - Allegro Molto.flac" WAVE
INDEX 01 00:00:00
mp3



Показать сообщения:    

Текущее время: 11-Дек 16:54

Часовой пояс: UTC + 3


Вы не можете начинать темы
Вы не можете отвечать на сообщения
Вы не можете редактировать свои сообщения
Вы не можете удалять свои сообщения
Вы не можете голосовать в опросах
Вы не можете прикреплять файлы к сообщениям
Вы не можете скачивать файлы