(Orchestral) A.Dvorak - Cello concerto | J.Brahms - Symphonie Nr.3 (P.Fournier • RTSI Orchestra, Lugano - H.Scherchen) - 1996, FLAC (image+.cue) lossless


Статистика раздачи [Обновить пиров]
Размер:  323 MB   |    Зарегистрирован:  10 месяцев 6 дней   |    Скачан:  0 раз

Полного источника не было: Никогда

Личеров:  3  [  0 KB/s  ]   Подробная статистика пиров
 
   
 
 
 

[Цитировать]

HERMANN SCHERCHEN conducts
DVOŘÁK: Cello concerto | BRAHMS: Symphonie Nr.3
----- Жанр: Orchestral
Страна-производитель диска: Italy
Год издания диска: 1996
Издатель (лейбл): Ermitage
Дата записи: 25.4.1962
Аудиокодек: FLAC
Тип рипа: image+.cue
Битрейт аудио: lossless
Продолжительность: 73'40''
Источник: собственный рип
Наличие сканов в содержимом раздачи: да
Треклист:
Dvořák - Cello Concerto:
[1] I. Allegro
[2] II. Adagio ma non troppo
[3] III. Allegro moderato
Brahms - Symphonie Nr.3:
[4] I. Allegro con brio
[5] II. Andante
[6] III. Scherzo (Poco allegretto)
[7] IV. Allegro
Исполнители:
Pierre Fournier
RTSI Orchestra, Lugano - Hermann Scherchen
-

Лог создания рипа

Exact Audio Copy V1.0 beta 3 from 29. August 2011
EAC extraction logfile from 25. January 2014, 20:27
RTSI Orchestra - Hermann Scherchen / Dvorak - Cello Concerto; Brahms - Symphonie Nr.3
Used drive : COMPAQ CD-ROM LTN403 Adapter: 0 ID: 0
Read mode : Secure
Utilize accurate stream : Yes
Defeat audio cache : Yes
Make use of C2 pointers : No
Read offset correction : -1164
Overread into Lead-In and Lead-Out : Yes
Fill up missing offset samples with silence : Yes
Delete leading and trailing silent blocks : No
Null samples used in CRC calculations : Yes
Used interface : Native Win32 interface for Win NT & 2000
Used output format : User Defined Encoder
Selected bitrate : 896 kBit/s
Quality : High
Add ID3 tag : No
Command line compressor : C:\Program Files\FLAC\flac.exe
Additional command line options : -T "COMMENT=rip by el coronel" -8 -V %source%
TOC of the extracted CD
Track | Start | Length | Start sector | End sector
---------------------------------------------------------
1 | 0:00.32 | 14:25.20 | 32 | 64926
2 | 14:25.52 | 11:36.68 | 64927 | 117194
3 | 26:02.45 | 12:10.15 | 117195 | 171959
4 | 38:12.60 | 9:15.20 | 171960 | 213604
5 | 47:28.05 | 10:25.72 | 213605 | 260551
6 | 57:54.02 | 5:51.43 | 260552 | 286919
7 | 63:45.45 | 9:54.62 | 286920 | 331531
Range status and errors
Selected range
Filename D:\Dvorak - Cello Concerto; Brahms - Symphonie 3.wav
Peak level 100.0 %
Extraction speed 3.0 X
Range quality 99.9 %
Test CRC 7CC30B64
Copy CRC 7CC30B64
Copy OK
No errors occurred
AccurateRip summary
Track 1 not present in database
Track 2 not present in database
Track 3 not present in database
Track 4 not present in database
Track 5 not present in database
Track 6 not present in database
Track 7 not present in database
None of the tracks are present in the AccurateRip database
End of status report
==== Log checksum C35A4FF135D8D2090D4F23AF35DAFA8FA010A2DFA21A75A779FC64A7333D7F07 ====

Содержание индексной карты (.CUE)

REM GENRE Classical
REM DATE 1996
REM DISCID 6F114407
REM COMMENT "ExactAudioCopy v1.0b3"
PERFORMER "RTSI Orchestra - Hermann Scherchen"
TITLE "Dvorak - Cello Concerto; Brahms - Symphonie Nr.3"
FILE "Dvorak - Cello Concerto; Brahms - Symphonie 3.flac" WAVE
TRACK 01 AUDIO
TITLE "Dvorak - Cello Concerto: I. Allegro"
PERFORMER "Pierre Fournier; RTSI Orchestra - Hermann Scherchen"
INDEX 00 00:00:00
INDEX 01 00:00:32
TRACK 02 AUDIO
TITLE "II. Adagio ma non troppo"
PERFORMER "Pierre Fournier; RTSI Orchestra - Hermann Scherchen"
INDEX 00 14:22:65
INDEX 01 14:25:52
TRACK 03 AUDIO
TITLE "III. Allegro moderato"
PERFORMER "Pierre Fournier; RTSI Orchestra - Hermann Scherchen"
INDEX 00 25:58:60
INDEX 01 26:02:45
TRACK 04 AUDIO
TITLE "Brahms - Symphony #3: I. Allegro con brio"
PERFORMER "RTSI Orchestra - Hermann Scherchen"
INDEX 00 38:11:55
INDEX 01 38:12:60
TRACK 05 AUDIO
TITLE "II. Andante"
PERFORMER "RTSI Orchestra - Hermann Scherchen"
INDEX 00 47:25:05
INDEX 01 47:28:05
TRACK 06 AUDIO
TITLE "III. Scherzo (Poco allegretto)"
PERFORMER "RTSI Orchestra - Hermann Scherchen"
INDEX 00 57:52:05
INDEX 01 57:54:02
TRACK 07 AUDIO
TITLE "IV. Allegro"
PERFORMER "RTSI Orchestra - Hermann Scherchen"
INDEX 00 63:42:10
INDEX 01 63:45:45
-
[teatrix.ru].t18840.torrent 
Торрент: Зарегистрирован [ 2016-03-18 12:10 ] · 8AD2129F74C5FE9840A56E7339D227AA02795E26

Скачать .torrent

Скачать

13 KB

Статус: проверено
Скачан: 0 раз
Размер: 323 MB
terms.php



Быстрый ответ

Имя:

      
Для отправки сообщений необходимо включить JavaScript
Показать сообщения:    

Текущее время: 24-Янв 12:15

Часовой пояс: UTC + 3


Вы можете начинать темы
Вы можете отвечать на сообщения
Вы не можете редактировать свои сообщения
Вы не можете удалять свои сообщения
Вы не можете голосовать в опросах
Вы не можете прикреплять файлы к сообщениям
Вы можете скачивать файлы