(Chamber music) Д.Шостакович - Струнные квартеты №№12-14 (Квартет им. Шостаковича) - 1994, FLAC (image+.cue) lossless


 

[Цитировать]

Shostakovich - String Quartets Nos.12-14
The Shostakovich Quartet----- Жанр: Chamber music
Страна-производитель диска: England
Год издания диска: 1994
Издатель (лейбл): Olympia
Дата записи: 1980/85/88
Аудиокодек: FLAC
Тип рипа: image+.cue
Битрейт аудио: lossless
Продолжительность: 73'02''
Источник: собственный рип
Наличие сканов в содержимом раздачи: да
Треклист:
Квартет №12
[1] I. Moderato - Allegretto
[2] II. Allegretto - Adagio - Moderato - Allegretto
Квартет №13:
[3] Adagio - Doppi movimento - Tempo primo
Квартет №14
[4] I. Allegretto
[5] II. Adagio
[6] III. Allegretto - Adagio
Исполнители:
Квартет имени Шостаковича
Андрей Шишлов - скрипка | Сергей Пищугин - скрипка | Александр Галковский - альт | Александр Корчагин - виолончель-

Лог создания рипа

Exact Audio Copy V1.0 beta 3 from 29. August 2011
EAC extraction logfile from 16. February 2014, 18:38
The Shostakovich Quartet / Shostakovich - String Quartets Nos.12 - 14
Used drive : COMPAQ CD-ROM LTN403 Adapter: 0 ID: 0
Read mode : Secure
Utilize accurate stream : Yes
Defeat audio cache : Yes
Make use of C2 pointers : No
Read offset correction : -1164
Overread into Lead-In and Lead-Out : No
Fill up missing offset samples with silence : Yes
Delete leading and trailing silent blocks : No
Null samples used in CRC calculations : Yes
Used interface : Native Win32 interface for Win NT & 2000
Used output format : User Defined Encoder
Selected bitrate : 1024 kBit/s
Quality : High
Add ID3 tag : No
Command line compressor : C:\Program Files\FLAC\flac.exe
Additional command line options : -T"COMMENT=rip by el coronel" -8 -V %source%
TOC of the extracted CD
Track | Start | Length | Start sector | End sector
---------------------------------------------------------
1 | 0:00.00 | 8:05.60 | 0 | 36434
2 | 8:05.60 | 19:51.02 | 36435 | 125761
3 | 27:56.62 | 18:14.60 | 125762 | 207871
4 | 46:11.47 | 8:49.23 | 207872 | 247569
5 | 55:00.70 | 9:39.27 | 247570 | 291021
6 | 64:40.22 | 8:21.53 | 291022 | 328649
Range status and errors
Selected range
Filename D:\Shostakovich - String Quartets Nos.12 - 14.wav
Peak level 95.5 %
Extraction speed 3.0 X
Range quality 100.0 %
Test CRC 6A7E72E2
Copy CRC 6A7E72E2
Copy OK
No errors occurred
End of status report
==== Log checksum A1272CCC0BD1F1789B7D29683056713A5B38058A1DFC61BD5683D6728F06BDE2 ====

Содержание индексной карты (.CUE)

REM GENRE Classical
REM DATE 1994
REM DISCID 5B111E06
REM COMMENT "ExactAudioCopy v1.0b3"
PERFORMER "The Shostakovich Quartet"
TITLE "Shostakovich - String Quartets Nos.12 - 14"
FILE "Shostakovich - String Quartets Nos.12 - 14.flac" WAVE
TRACK 01 AUDIO
TITLE "Quartet No.12: I. Moderato - Allegretto"
PERFORMER "The Shostakovich Quartet"
INDEX 01 00:00:00
TRACK 02 AUDIO
TITLE "II. Allegretto - Adagio - Moderato - Allegretto"
PERFORMER "The Shostakovich Quartet"
INDEX 00 08:01:09
INDEX 01 08:05:60
TRACK 03 AUDIO
TITLE "Quartet No.13: Adagio - Doppi movimento - Tempo primo"
PERFORMER "The Shostakovich Quartet"
INDEX 00 27:49:66
INDEX 01 27:56:62
TRACK 04 AUDIO
TITLE "Quartet No.14: I. Allegretto"
PERFORMER "The Shostakovich Quartet"
INDEX 00 46:06:10
INDEX 01 46:11:47
TRACK 05 AUDIO
TITLE "II. Adagio"
PERFORMER "The Shostakovich Quartet"
INDEX 00 54:56:06
INDEX 01 55:00:70
TRACK 06 AUDIO
TITLE "III. Allegretto - Adagio"
PERFORMER "The Shostakovich Quartet"
INDEX 00 64:40:20
INDEX 01 64:40:22
-



Показать сообщения:    

Текущее время: 08-Дек 03:14

Часовой пояс: UTC + 3


Вы не можете начинать темы
Вы не можете отвечать на сообщения
Вы не можете редактировать свои сообщения
Вы не можете удалять свои сообщения
Вы не можете голосовать в опросах
Вы не можете прикреплять файлы к сообщениям
Вы не можете скачивать файлы