(Classical) Antonio Bertali - Valoroso - Ricercar Consort, Philippe Pierlot - 2004, FLAC (image+.cue) lossless


 

[Цитировать]

Antonio Bertali - Valoroso - Ricercar Consort, Philippe Pierlot
Жанр: Classical
Страна-производитель диска: France
Год издания диска: 2004
Издатель (лейбл): Mirare
Номер по каталогу: MIR 9969
Дата записи: 2003
Аудиокодек: FLAC
Тип рипа: image+.cue
Битрейт аудио: lossless
Продолжительность: 79:18
Источник: собственный рип
Наличие сканов в содержимом раздачи: да
Треклист:
Antonio Bertali (1605-1669)
[1] Sonata a 6
[2] Leopoldus I 'Accompagnamento di viole del Antonio Bertali' - Regina coeli
[3] Sonata a 2
[4] Sonata a 3
[5] Sonata a 5
[6] Sonata a 3
[7] Anonyme: Sonatina a Viola de Gamba
[8] Allemande - Variatio
[9] Courente - Variatio
[10] Sarabande - Variatio 1ma & 2da
[11] Gigue 1mo & 2da
[12] Sonata a 3
[13] Sonata a 6 'Tausend Gulden'
[14] Chiacona
Исполнители:
Ricercar Consort
Philippe Pierlot

Лог создания рипа

Exact Audio Copy V1.0 beta 3 from 29. August 2011
EAC extraction logfile from 19. June 2014, 18:05
Ricercar Consort, Philippe Pierlot / Bertali - Valoroso
Used drive : HL-DT-STDVDRRW GWA-4164B Adapter: 5 ID: 0
Read mode : Secure
Utilize accurate stream : Yes
Defeat audio cache : Yes
Make use of C2 pointers : No
Read offset correction : 102
Overread into Lead-In and Lead-Out : No
Fill up missing offset samples with silence : Yes
Delete leading and trailing silent blocks : No
Null samples used in CRC calculations : Yes
Used interface : Native Win32 interface for Win NT & 2000
Used output format : User Defined Encoder
Selected bitrate : 896 kBit/s
Quality : High
Add ID3 tag : No
Command line compressor : C:\Program Files\Exact Audio Copy\FLAC\FLAC.EXE
Additional command line options : -V -8 %source%
TOC of the extracted CD
Track | Start | Length | Start sector | End sector
---------------------------------------------------------
1 | 0:00.00 | 8:17.14 | 0 | 37288
2 | 8:17.14 | 7:14.70 | 37289 | 69908
3 | 15:32.09 | 8:32.24 | 69909 | 108332
4 | 24:04.33 | 3:56.64 | 108333 | 126096
5 | 28:01.22 | 6:30.47 | 126097 | 155393
6 | 34:31.69 | 6:29.62 | 155394 | 184630
7 | 41:01.56 | 5:04.23 | 184631 | 207453
8 | 46:06.04 | 2:08.26 | 207454 | 217079
9 | 48:14.30 | 2:24.49 | 217080 | 227928
10 | 50:39.04 | 4:34.00 | 227929 | 248478
11 | 55:13.04 | 1:32.28 | 248479 | 255406
12 | 56:45.32 | 7:27.51 | 255407 | 288982
13 | 64:13.08 | 6:44.21 | 288983 | 319303
14 | 70:57.29 | 8:20.50 | 319304 | 356853
Range status and errors
Selected range
Filename D:\temp\Music\Bertali - Valoroso\Bertali - Valoroso.wav
Peak level 100.0 %
Extraction speed 2.9 X
Range quality 99.9 %
Test CRC 8A066E26
Copy CRC 8A066E26
Copy OK
No errors occurred
AccurateRip summary
Track 1 accurately ripped (confidence 2) [29C3055E] (AR v2)
Track 2 accurately ripped (confidence 2) [A3778EAF] (AR v2)
Track 3 accurately ripped (confidence 2) [3CA20B4A] (AR v2)
Track 4 accurately ripped (confidence 2) [D7382983] (AR v2)
Track 5 accurately ripped (confidence 2) [15E2D4B7] (AR v2)
Track 6 accurately ripped (confidence 2) [C8E239AB] (AR v2)
Track 7 accurately ripped (confidence 2) [8BEEB3C8] (AR v2)
Track 8 accurately ripped (confidence 2) [0014C2A7] (AR v2)
Track 9 accurately ripped (confidence 2) [1D958544] (AR v2)
Track 10 accurately ripped (confidence 2) [439B83F6] (AR v2)
Track 11 accurately ripped (confidence 2) [B1088BAC] (AR v2)
Track 12 accurately ripped (confidence 2) [538EE9EB] (AR v2)
Track 13 accurately ripped (confidence 2) [22564655] (AR v2)
Track 14 accurately ripped (confidence 7) [E749AA28] (AR v1)
All tracks accurately ripped
End of status report
==== Log checksum A3ED06EB5F556D87B97BCFB62633B8303E4AAC0091112DF1EE86837F198E8DB2 ====



Показать сообщения:    

Текущее время: 05-Дек 15:27

Часовой пояс: UTC + 3


Вы не можете начинать темы
Вы не можете отвечать на сообщения
Вы не можете редактировать свои сообщения
Вы не можете удалять свои сообщения
Вы не можете голосовать в опросах
Вы не можете прикреплять файлы к сообщениям
Вы не можете скачивать файлы