Раманатха - Видеокурс по Чакра-йоге (Уроки Чакра-Йоги и тайные практики монахов) [2014, эзотерика, чакры, WEBRip, RUS] (Видеоурок)


Статистика раздачи [Обновить пиров]
Размер:  1.57 GB   |    Зарегистрирован:  8 месяцев 22 дня   |    Скачан:  0 раз

Полного источника не было: Никогда

Личеров:  3  [  0 KB/s  ]   Подробная статистика пиров
 
   
 
 
 

[Цитировать]

Раманатха - Видеокурс по Чакра-йоге (Уроки Чакра-Йоги и тайные практики монахов)
Страна: Россия
Тематика: эзотерика, чакры
Тип раздаваемого материала: Видеоурок
Продолжительность: 10:26:24
Год выпуска: 2014
Язык: Русский
Перевод: Не требуется
Описание: Уроки Чакра-Йоги и тайные практики монахов

Описание

На вебинарах Вы узнаете:
· Теорию и практику работы с внутренней энергией
· Взаимосвязь Чакр и внешних событий
· Как изменить судьбу с помощью Чакра-йоги?
· Тайные методы и практики от монаха Йогина
1-ый Вебинар 24 апреля 2014 года
Тема: «Муладхара чакра»
Понятие о муладхара-чакре;
Как проявляется работа чакры на физическом, энергетическом и астральном уровнях;
Как управлять внутренним и внешним миром сосредотачиваясь на чакре;
Как выравнивать энергетический дисбаланс, здоровье с помощью чакры;
Практика он-лайн (выполняется в медитативной позе);
Анга муладхара чакры - практика методов поиска, активизации чакры;
Концентрация на муладхара-чакре.
2-ой Вебинар 1 мая 2014 года
Тема: «Свадхистана чакра»
Локализация и проявление свадхистана-чакры в теле;
Взаимосвязь состояния чакры и состояния здоровья;
Как проявляется чакра в повседневной жизни, как этим управлять;
Практические методы раскрытия свадхистана-чакры;
Концентрация на свадхистана-чакре;
Ответы на вопросы по йоге управления чакрами.
3-ий Вебинар 8 мая 2014 года
Тема: «Манипура-чакра»
Локализация и проявление манипура-чакры в теле;
Взаимосвязь состояния чакры и состояния здоровья;
Как проявляется чакра в повседневной жизни, как этим управлять;
Практические методы раскрытия манипупа-чакры;
Концентрация на манипура-чакре;
Ответы на вопросы.
4-ый Вебинар 15 мая 2014 года
Тема: «Анахата-чакра»
Локализация и проявление анахата-чакры в теле;
Взаимосвязь состояния чакры и состояния здоровья;
Как проявляется чакра в повседневной жизни, как этим управлять;
Практические методы раскрытия анахата-чакры;
Концентрация на анахата-чакре;
Ответы на вопросы.
5-ый Вебинар 22 мая 2014 года
Тема: «Вишудха-чакра»
Локализация и проявление вишудха-чакры в теле;
Взаимосвязь состояния чакры и состояния здоровья;
Как проявляется чакра в повседневной жизни, как этим управлять;
Практические методы раскрытия вишудха-чакры;
Концентрация на вишудха-чакре;
Ответы на вопросы.
6-ой Вебинар 29 мая 2014 года
Тема: «Аджна-чакра»
Локализация и проявление аджна-чакры в теле;
Взаимосвязь состояния чакры и состояния здоровья;
Как проявляется чакра в повседневной жизни, как этим управлять;
Практические методы раскрытия аджна-чакры;
Концентрация на аджна-чакре;
Ответы на вопросы.
Доп. информация: 6-ой вебинар в формате mp3
Качество: WEBRip
Формат: MP4
Видео: AVC, 361 Кбит/сек, 640x360, 16:9, Постоянный, 29,970 кадров/сек
Аудио: AAC, Переменный, 103 Кбит/сек, 2 канала, 48,0 КГц

Данные

Общее
Полное имя : C:\6 Вебинаров по Чакра-йоге\1\Вебинар с Раманатхой. Чакра йога. Вебинар 1 - Муладхара.mp4
Формат : MPEG-4
Профиль формата : Base Media / Version 2
Идентификатор кодека : mp42
Размер файла : 172 Мбайт
Продолжительность : 1 ч. 36 м.
Режим общего битрейта : Переменный
Общий поток : 248 Кбит/сек
Дата кодирования : UTC 2014-05-16 22:12:09
Дата пометки : UTC 2014-05-16 22:12:09
Видео
Идентификатор : 1
Формат : AVC
Формат/Информация : Advanced Video Codec
Профиль формата : High@L3.1
Параметр CABAC формата : Да
Параметр ReFrames формата : 4 кадра
Идентификатор кодека : avc1
Идентификатор кодека/Информация : Advanced Video Coding
Продолжительность : 1 ч. 36 м.
Битрейт : 140 Кбит/сек
Ширина : 640 пикселей
Высота : 360 пикселей
Соотношение сторон : 16:9
Режим частоты кадров : Постоянный
Частота кадров : 29,970 кадров/сек
Цветовое пространство : YUV
Субдискретизация насыщенности : 4:2:0
Битовая глубина : 8 бит
Тип развёртки : Прогрессивная
Бит/(Пиксели*Кадры) : 0.020
Размер потока : 97,0 Мбайт (57%)
Библиотека кодирования : x264 core 142 r2409 d6b4e63
Настройки программы : cabac=1 / ref=3 / deblock=1:0:0 / analyse=0x3:0x113 / me=hex / subme=7 / psy=1 / psy_rd=1.00:0.00 / mixed_ref=1 /
me_range=16 / chroma_me=1 / trellis=1 / 8x8dct=1 / cqm=0 / deadzone=21,11 / fast_pskip=1 / chroma_qp_offset=-2 / threads=24 / lookahead_threads=2 /
sliced_threads=0 / nr=0 / decimate=1 / interlaced=0 / bluray_compat=0 / stitchable=1 / constrained_intra=0 / bframes=3 / b_pyramid=2 / b_adapt=1 / b_bias=0 /
direct=1 / weightb=1 / open_gop=0 / weightp=2 / keyint=90 / keyint_min=30 / scenecut=40 / intra_refresh=0 / rc_lookahead=40 / rc=crf / mbtree=1 / crf=20.0 /
qcomp=0.60 / qpmin=5 / qpmax=69 / qpstep=4 / vbv_maxrate=1125 / vbv_bufsize=3750 / crf_max=0.0 / nal_hrd=none / filler=0 / ip_ratio=1.40 / aq=1:1.00
Дата кодирования : UTC 2014-05-16 22:12:09
Дата пометки : UTC 2014-05-16 22:12:09
Основные цвета : BT.601 NTSC
Характеристики трансфера : BT.601
Коэффициенты матрицы : BT.601
Аудио
Идентификатор : 2
Формат : AAC
Формат/Информация : Advanced Audio Codec
Профиль формата : LC
Идентификатор кодека : 40
Продолжительность : 1 ч. 36 м.
Вид битрейта : Переменный
Битрейт : 103 Кбит/сек
Каналы : 2 канала
Расположение каналов : Front: L R
Частота : 48,0 КГц
Метод сжатия : С потерями
Размер потока : 71,3 Мбайт (42%)
Дата кодирования : UTC 2014-05-16 22:12:09
Дата пометки : UTC 2014-05-16 22:12:09
Общее
Полное имя : C:\6 Вебинаров по Чакра-йоге\2\Вебинар №2 - Свадхистана чакра.mp4
Формат : MPEG-4
Профиль формата : Base Media / Version 2
Идентификатор кодека : mp42
Размер файла : 319 Мбайт
Продолжительность : 1 ч. 35 м.
Режим общего битрейта : Переменный
Общий поток : 469 Кбит/сек
Дата кодирования : UTC 2014-05-16 22:21:11
Дата пометки : UTC 2014-05-16 22:21:11
Видео
Идентификатор : 1
Формат : AVC
Формат/Информация : Advanced Video Codec
Профиль формата : High@L3.1
Параметр CABAC формата : Да
Параметр ReFrames формата : 4 кадра
Идентификатор кодека : avc1
Идентификатор кодека/Информация : Advanced Video Coding
Продолжительность : 1 ч. 35 м.
Битрейт : 361 Кбит/сек
Ширина : 640 пикселей
Высота : 360 пикселей
Соотношение сторон : 16:9
Режим частоты кадров : Постоянный
Частота кадров : 29,970 кадров/сек
Цветовое пространство : YUV
Субдискретизация насыщенности : 4:2:0
Битовая глубина : 8 бит
Тип развёртки : Прогрессивная
Бит/(Пиксели*Кадры) : 0.052
Размер потока : 246 Мбайт (77%)
Библиотека кодирования : x264 core 142 r2409 d6b4e63
Настройки программы : cabac=1 / ref=3 / deblock=1:0:0 / analyse=0x3:0x113 / me=hex / subme=7 / psy=1 / psy_rd=1.00:0.00 / mixed_ref=1 /
me_range=16 / chroma_me=1 / trellis=1 / 8x8dct=1 / cqm=0 / deadzone=21,11 / fast_pskip=1 / chroma_qp_offset=-2 / threads=24 / lookahead_threads=2 /
sliced_threads=0 / nr=0 / decimate=1 / interlaced=0 / bluray_compat=0 / stitchable=1 / constrained_intra=0 / bframes=3 / b_pyramid=2 / b_adapt=1 / b_bias=0 /
direct=1 / weightb=1 / open_gop=0 / weightp=2 / keyint=90 / keyint_min=30 / scenecut=40 / intra_refresh=0 / rc_lookahead=40 / rc=crf / mbtree=1 / crf=20.0 /
qcomp=0.60 / qpmin=5 / qpmax=69 / qpstep=4 / vbv_maxrate=1125 / vbv_bufsize=3750 / crf_max=0.0 / nal_hrd=none / filler=0 / ip_ratio=1.40 / aq=1:1.00
Дата кодирования : UTC 2014-05-16 22:21:11
Дата пометки : UTC 2014-05-16 22:21:11
Основные цвета : BT.601 NTSC
Характеристики трансфера : BT.601
Коэффициенты матрицы : BT.601
Аудио
Идентификатор : 2
Формат : AAC
Формат/Информация : Advanced Audio Codec
Профиль формата : LC
Идентификатор кодека : 40
Продолжительность : 1 ч. 35 м.
Вид битрейта : Переменный
Битрейт : 103 Кбит/сек
Каналы : 2 канала
Расположение каналов : Front: L R
Частота : 48,0 КГц
Метод сжатия : С потерями
Размер потока : 70,1 Мбайт (22%)
Дата кодирования : UTC 2014-05-16 22:21:11
Дата пометки : UTC 2014-05-16 22:21:11
Общее
Полное имя : C:\6 Вебинаров по Чакра-йоге\3\Вебинар №3 - Анахата чакра.mp4
Формат : MPEG-4
Профиль формата : Base Media / Version 2
Идентификатор кодека : mp42
Размер файла : 311 Мбайт
Продолжительность : 1 ч. 56 м.
Режим общего битрейта : Переменный
Общий поток : 372 Кбит/сек
Дата кодирования : UTC 2014-05-10 03:58:57
Дата пометки : UTC 2014-05-10 03:58:57
Видео
Идентификатор : 1
Формат : AVC
Формат/Информация : Advanced Video Codec
Профиль формата : High@L3.1
Параметр CABAC формата : Да
Параметр ReFrames формата : 4 кадра
Идентификатор кодека : avc1
Идентификатор кодека/Информация : Advanced Video Coding
Продолжительность : 1 ч. 56 м.
Битрейт : 265 Кбит/сек
Ширина : 640 пикселей
Высота : 360 пикселей
Соотношение сторон : 16:9
Режим частоты кадров : Постоянный
Частота кадров : 29,970 кадров/сек
Цветовое пространство : YUV
Субдискретизация насыщенности : 4:2:0
Битовая глубина : 8 бит
Тип развёртки : Прогрессивная
Бит/(Пиксели*Кадры) : 0.038
Размер потока : 221 Мбайт (71%)
Библиотека кодирования : x264 core 142 r2409 d6b4e63
Настройки программы : cabac=1 / ref=3 / deblock=1:0:0 / analyse=0x3:0x113 / me=hex / subme=7 / psy=1 / psy_rd=1.00:0.00 / mixed_ref=1 /
me_range=16 / chroma_me=1 / trellis=1 / 8x8dct=1 / cqm=0 / deadzone=21,11 / fast_pskip=1 / chroma_qp_offset=-2 / threads=24 / lookahead_threads=2 /
sliced_threads=0 / nr=0 / decimate=1 / interlaced=0 / bluray_compat=0 / stitchable=1 / constrained_intra=0 / bframes=3 / b_pyramid=2 / b_adapt=1 / b_bias=0 /
direct=1 / weightb=1 / open_gop=0 / weightp=2 / keyint=90 / keyint_min=30 / scenecut=40 / intra_refresh=0 / rc_lookahead=40 / rc=crf / mbtree=1 / crf=20.0 /
qcomp=0.60 / qpmin=5 / qpmax=69 / qpstep=4 / vbv_maxrate=900 / vbv_bufsize=3000 / crf_max=0.0 / nal_hrd=none / filler=0 / ip_ratio=1.40 / aq=1:1.00
Дата кодирования : UTC 2014-05-10 03:58:57
Дата пометки : UTC 2014-05-10 03:58:57
Аудио
Идентификатор : 2
Формат : AAC
Формат/Информация : Advanced Audio Codec
Профиль формата : LC
Идентификатор кодека : 40
Продолжительность : 1 ч. 56 м.
Вид битрейта : Переменный
Битрейт : 103 Кбит/сек
Каналы : 2 канала
Расположение каналов : Front: L R
Частота : 48,0 КГц
Метод сжатия : С потерями
Размер потока : 86,0 Мбайт (28%)
Дата кодирования : UTC 2014-05-10 03:58:57
Дата пометки : UTC 2014-05-10 03:58:57
Общее
Полное имя : C:\6 Вебинаров по Чакра-йоге\4\Вебинар №4 - Манипура чакра.mp4
Формат : MPEG-4
Профиль формата : Base Media / Version 2
Идентификатор кодека : mp42
Размер файла : 187 Мбайт
Продолжительность : 1 ч. 12 м.
Режим общего битрейта : Переменный
Общий поток : 359 Кбит/сек
Дата кодирования : UTC 2014-05-16 22:06:01
Дата пометки : UTC 2014-05-16 22:06:01
Видео
Идентификатор : 1
Формат : AVC
Формат/Информация : Advanced Video Codec
Профиль формата : High@L3.1
Параметр CABAC формата : Да
Параметр ReFrames формата : 4 кадра
Идентификатор кодека : avc1
Идентификатор кодека/Информация : Advanced Video Coding
Продолжительность : 1 ч. 12 м.
Битрейт : 251 Кбит/сек
Ширина : 640 пикселей
Высота : 360 пикселей
Соотношение сторон : 16:9
Режим частоты кадров : Постоянный
Частота кадров : 29,970 кадров/сек
Цветовое пространство : YUV
Субдискретизация насыщенности : 4:2:0
Битовая глубина : 8 бит
Тип развёртки : Прогрессивная
Бит/(Пиксели*Кадры) : 0.036
Размер потока : 131 Мбайт (70%)
Библиотека кодирования : x264 core 142 r2409 d6b4e63
Настройки программы : cabac=1 / ref=3 / deblock=1:0:0 / analyse=0x3:0x113 / me=hex / subme=7 / psy=1 / psy_rd=1.00:0.00 / mixed_ref=1 /
me_range=16 / chroma_me=1 / trellis=1 / 8x8dct=1 / cqm=0 / deadzone=21,11 / fast_pskip=1 / chroma_qp_offset=-2 / threads=24 / lookahead_threads=2 /
sliced_threads=0 / nr=0 / decimate=1 / interlaced=0 / bluray_compat=0 / stitchable=1 / constrained_intra=0 / bframes=3 / b_pyramid=2 / b_adapt=1 / b_bias=0 /
direct=1 / weightb=1 / open_gop=0 / weightp=2 / keyint=90 / keyint_min=30 / scenecut=40 / intra_refresh=0 / rc_lookahead=40 / rc=crf / mbtree=1 / crf=20.0 /
qcomp=0.60 / qpmin=5 / qpmax=69 / qpstep=4 / vbv_maxrate=1125 / vbv_bufsize=3750 / crf_max=0.0 / nal_hrd=none / filler=0 / ip_ratio=1.40 / aq=1:1.00
Дата кодирования : UTC 2014-05-16 22:06:01
Дата пометки : UTC 2014-05-16 22:06:01
Основные цвета : BT.601 NTSC
Характеристики трансфера : BT.601
Коэффициенты матрицы : BT.601
Аудио
Идентификатор : 2
Формат : AAC
Формат/Информация : Advanced Audio Codec
Профиль формата : LC
Идентификатор кодека : 40
Продолжительность : 1 ч. 12 м.
Вид битрейта : Переменный
Битрейт : 103 Кбит/сек
Каналы : 2 канала
Расположение каналов : Front: L R
Частота : 48,0 КГц
Метод сжатия : С потерями
Размер потока : 53,7 Мбайт (29%)
Дата кодирования : UTC 2014-05-16 22:06:01
Дата пометки : UTC 2014-05-16 22:06:01
Общее
Полное имя : C:\6 Вебинаров по Чакра-йоге\5\Вебинар №5 - Вишудха чакра.mp4
Формат : MPEG-4
Профиль формата : Base Media / Version 2
Идентификатор кодека : mp42
Размер файла : 299 Мбайт
Продолжительность : 1 ч. 4 м.
Режим общего битрейта : Переменный
Общий поток : 644 Кбит/сек
Дата кодирования : UTC 2014-05-23 04:54:15
Дата пометки : UTC 2014-05-23 04:54:15
Видео
Идентификатор : 1
Формат : AVC
Формат/Информация : Advanced Video Codec
Профиль формата : High@L3.1
Параметр CABAC формата : Да
Параметр ReFrames формата : 4 кадра
Идентификатор кодека : avc1
Идентификатор кодека/Информация : Advanced Video Coding
Продолжительность : 1 ч. 4 м.
Битрейт : 492 Кбит/сек
Ширина : 1024 пикселя
Высота : 576 пикселей
Соотношение сторон : 16:9
Режим частоты кадров : Постоянный
Частота кадров : 29,970 кадров/сек
Цветовое пространство : YUV
Субдискретизация насыщенности : 4:2:0
Битовая глубина : 8 бит
Тип развёртки : Прогрессивная
Бит/(Пиксели*Кадры) : 0.028
Размер потока : 229 Мбайт (76%)
Библиотека кодирования : x264 core 142 r2409 d6b4e63
Настройки программы : cabac=1 / ref=3 / deblock=1:0:0 / analyse=0x3:0x113 / me=hex / subme=7 / psy=1 / psy_rd=1.00:0.00 / mixed_ref=1 /
me_range=16 / chroma_me=1 / trellis=1 / 8x8dct=1 / cqm=0 / deadzone=21,11 / fast_pskip=1 / chroma_qp_offset=-2 / threads=24 / lookahead_threads=4 /
sliced_threads=0 / nr=0 / decimate=1 / interlaced=0 / bluray_compat=0 / stitchable=1 / constrained_intra=0 / bframes=3 / b_pyramid=2 / b_adapt=1 / b_bias=0 /
direct=1 / weightb=1 / open_gop=0 / weightp=2 / keyint=90 / keyint_min=30 / scenecut=40 / intra_refresh=0 / rc_lookahead=40 / rc=crf / mbtree=1 / crf=20.0 /
qcomp=0.60 / qpmin=5 / qpmax=69 / qpstep=4 / vbv_maxrate=3750 / vbv_bufsize=12500 / crf_max=0.0 / nal_hrd=none / filler=0 / ip_ratio=1.40 / aq=1:1.00
Дата кодирования : UTC 2014-05-23 04:54:15
Дата пометки : UTC 2014-05-23 04:54:15
Основные цвета : BT.709
Характеристики трансфера : BT.709
Коэффициенты матрицы : BT.709
Аудио
Идентификатор : 2
Формат : AAC
Формат/Информация : Advanced Audio Codec
Профиль формата : LC
Идентификатор кодека : 40
Продолжительность : 1 ч. 4 м.
Вид битрейта : Переменный
Битрейт : 147 Кбит/сек
Каналы : 2 канала
Расположение каналов : Front: L R
Частота : 48,0 КГц
Метод сжатия : С потерями
Размер потока : 68,3 Мбайт (23%)
Дата кодирования : UTC 2014-05-23 04:54:15
Дата пометки : UTC 2014-05-23 04:54:15
Общее
Полное имя : C:\6 Вебинаров по Чакра-йоге\6\2014 05 29 Аджна Чакра.mp3
Формат : MPEG Audio
Размер файла : 73,7 Мбайт
Продолжительность : 1 ч. 47 м.
Режим общего битрейта : Постоянный
Общий поток : 96,0 Кбит/сек
Библиотека кодирования : LAME3.99r
Аудио
Формат : MPEG Audio
Версия формата : Version 1
Профиль формата : Layer 3
Продолжительность : 1 ч. 47 м.
Вид битрейта : Постоянный
Битрейт : 96,0 Кбит/сек
Каналы : 1 канал
Частота : 44,1 КГц
Метод сжатия : С потерями
Размер потока : 73,7 Мбайт (100%)
Библиотека кодирования : LAME3.99r
Настройки программы : -m m -V 4 -q 3 -lowpass 20.5 -b 96
Общее
Полное имя : C:\6 Вебинаров по Чакра-йоге\Вводный вебинар (дополнительно)\17.04.2014 Вебинар с Раманатхой на тему «Чакра
йога».mp4
Формат : MPEG-4
Профиль формата : Base Media
Идентификатор кодека : isom
Размер файла : 244 Мбайт
Продолжительность : 1 ч. 12 м.
Общий поток : 472 Кбит/сек
Программа кодирования : Lavf55.22.100
Видео
Идентификатор : 1
Формат : AVC
Формат/Информация : Advanced Video Codec
Профиль формата : Main@L3.0
Параметр CABAC формата : Да
Параметр ReFrames формата : 3 кадра
Идентификатор кодека : avc1
Идентификатор кодека/Информация : Advanced Video Coding
Продолжительность : 1 ч. 12 м.
Битрейт : 340 Кбит/сек
Ширина : 854 пикселя
Высота : 480 пикселей
Соотношение сторон : 16:9
Режим частоты кадров : Постоянный
Частота кадров : 25,000 кадров/сек
Цветовое пространство : YUV
Субдискретизация насыщенности : 4:2:0
Битовая глубина : 8 бит
Тип развёртки : Прогрессивная
Бит/(Пиксели*Кадры) : 0.033
Размер потока : 176 Мбайт (72%)
Аудио
Идентификатор : 2
Формат : AAC
Формат/Информация : Advanced Audio Codec
Профиль формата : LC
Идентификатор кодека : 40
Продолжительность : 1 ч. 12 м.
Вид битрейта : Постоянный
Битрейт : 126 Кбит/сек
Каналы : 2 канала
Расположение каналов : Front: L R
Частота : 44,1 КГц
Метод сжатия : С потерями
Размер потока : 65,0 Мбайт (27%)
[teatrix.ru].t18844.torrent 
Торрент: Зарегистрирован [ 2016-03-18 12:10 ] · 567C836E255187DBD02825F25601E5021A66C30E

Скачать .torrent

Скачать

18 KB

Статус: проверено
Скачан: 0 раз
Размер: 1.57 GB
terms.php



Быстрый ответ

Имя:

      
Для отправки сообщений необходимо включить JavaScript
Показать сообщения:    

Текущее время: 10-Дек 06:06

Часовой пояс: UTC + 3


Вы можете начинать темы
Вы можете отвечать на сообщения
Вы не можете редактировать свои сообщения
Вы не можете удалять свои сообщения
Вы не можете голосовать в опросах
Вы не можете прикреплять файлы к сообщениям
Вы можете скачивать файлы