(Classical) Baroque Bass Cantatas: Kegel, Wolff, Roemhildt, Donati, Telemann - Klaus Mertens, Accademia Daniel, Shalev Ad-El - 2009, FLAC (image+.cue) lossless


 

[Цитировать]

Baroque Bass Cantatas: Kegel, Wolff, Roemhildt, Donati, Telemann - Klaus Mertens, Accademia Daniel, Shalev Ad-El
Жанр: Classical
Страна-производитель диска: Germany
Год издания диска: 2009
Издатель (лейбл): CPO
Номер по каталогу: cpo777298-2
Дата записи: 2007
Аудиокодек: FLAC
Тип рипа: image+.cue
Битрейт аудио: lossless
Продолжительность: 75:42
Источник: собственный рип
Наличие сканов в содержимом раздачи: да
Треклист:
Baroque Bass Cantatas from Central Germany
Emanuel Kegel (1655-1724)
[1]-[5] Nichts ist süßer, als die Liebe
Christian Wolff (1705-1773)
[6]-[8] Mit Fried und Freu ich fahr dahin
Johann Theodor Roemhildt (1684-1756)
[9] Es geht kein andrer Weg zum Himmel
Hoffmann (?-?)
[12]-[18] Lobt Gott ihr Christen allzugleich
Johann Gottfried Donati (1706-1782)
[19]-[21] Mein Hertzens=Hauß bereite dich
Georg Philipp Telemann (1681-1767)
[22]-[26] Kaum ist der Heyland auf der Erden
Johann Theodor Roemhildt (1684-1756)
[27]-[29] Meine Sonne stehet stille
Исполнители:
Klaus Mertens Bass-Baritone
Accademia Daniel
Shalev Ad-El

Лог создания рипа

Exact Audio Copy V1.0 beta 3 from 29. August 2011
EAC extraction logfile from 7. February 2014, 16:09
Klaus Mertens, Accademia Daniel, Shalev Ad-El / Baroque Bass Cantatas
Used drive : HL-DT-STDVDRRW GWA-4164B Adapter: 5 ID: 0
Read mode : Secure
Utilize accurate stream : Yes
Defeat audio cache : Yes
Make use of C2 pointers : No
Read offset correction : 102
Overread into Lead-In and Lead-Out : No
Fill up missing offset samples with silence : Yes
Delete leading and trailing silent blocks : No
Null samples used in CRC calculations : Yes
Used interface : Native Win32 interface for Win NT & 2000
Used output format : User Defined Encoder
Selected bitrate : 896 kBit/s
Quality : High
Add ID3 tag : No
Command line compressor : C:\Program Files\Exact Audio Copy\FLAC\FLAC.EXE
Additional command line options : -V -8 %source%
TOC of the extracted CD
Track | Start | Length | Start sector | End sector
---------------------------------------------------------
1 | 0:00.00 | 3:32.18 | 0 | 15917
2 | 3:32.18 | 1:21.30 | 15918 | 22022
3 | 4:53.48 | 2:25.36 | 22023 | 32933
4 | 7:19.09 | 1:53.64 | 32934 | 41472
5 | 9:12.73 | 3:07.14 | 41473 | 55511
6 | 12:20.12 | 1:41.25 | 55512 | 63111
7 | 14:01.37 | 2:35.44 | 63112 | 74780
8 | 16:37.06 | 3:51.21 | 74781 | 92126
9 | 20:28.27 | 6:33.03 | 92127 | 121604
10 | 27:01.30 | 0:50.37 | 121605 | 125391
11 | 27:51.67 | 4:22.33 | 125392 | 145074
12 | 32:14.25 | 1:02.43 | 145075 | 149767
13 | 33:16.68 | 0:42.26 | 149768 | 152943
14 | 33:59.19 | 1:48.52 | 152944 | 161095
15 | 35:47.71 | 1:12.49 | 161096 | 166544
16 | 37:00.45 | 1:53.12 | 166545 | 175031
17 | 38:53.57 | 0:24.36 | 175032 | 176867
18 | 39:18.18 | 1:14.16 | 176868 | 182433
19 | 40:32.34 | 3:29.54 | 182434 | 198162
20 | 44:02.13 | 1:27.27 | 198163 | 204714
21 | 45:29.40 | 7:16.48 | 204715 | 237462
22 | 52:46.13 | 2:52.06 | 237463 | 250368
23 | 55:38.19 | 1:33.40 | 250369 | 257383
24 | 57:11.59 | 2:42.50 | 257384 | 269583
25 | 59:54.34 | 1:40.24 | 269584 | 277107
26 | 61:34.58 | 3:54.49 | 277108 | 294706
27 | 65:29.32 | 5:39.00 | 294707 | 320131
28 | 71:08.32 | 1:19.44 | 320132 | 326100
29 | 72:28.01 | 3:12.66 | 326101 | 340566
Range status and errors
Selected range
Filename D:\temp\Music\Baroque Bass Cantatas - Klaus Mertens\Baroque Bass Cantatas.wav
Peak level 96.0 %
Extraction speed 3.1 X
Range quality 100.0 %
Test CRC F325E8D9
Copy CRC F325E8D9
Copy OK
No errors occurred
AccurateRip summary
Track 1 accurately ripped (confidence 3) [259D07DE] (AR v2)
Track 2 accurately ripped (confidence 3) [FC7ADA84] (AR v2)
Track 3 accurately ripped (confidence 3) [1523BAEA] (AR v2)
Track 4 accurately ripped (confidence 3) [900BFA18] (AR v2)
Track 5 accurately ripped (confidence 3) [EB875E90] (AR v2)
Track 6 accurately ripped (confidence 3) [F4EE0C3A] (AR v2)
Track 7 accurately ripped (confidence 3) [17BE37BB] (AR v2)
Track 8 accurately ripped (confidence 3) [86128D0D] (AR v2)
Track 9 accurately ripped (confidence 3) [10F5196B] (AR v2)
Track 10 accurately ripped (confidence 3) [19A9BE8D] (AR v2)
Track 11 accurately ripped (confidence 3) [D84536A2] (AR v2)
Track 12 accurately ripped (confidence 3) [33385162] (AR v2)
Track 13 accurately ripped (confidence 3) [BBA295E6] (AR v2)
Track 14 accurately ripped (confidence 3) [FB8D7D7F] (AR v2)
Track 15 accurately ripped (confidence 3) [25634FD6] (AR v2)
Track 16 accurately ripped (confidence 3) [1397422D] (AR v2)
Track 17 accurately ripped (confidence 3) [105457A4] (AR v2)
Track 18 accurately ripped (confidence 3) [043B6556] (AR v2)
Track 19 accurately ripped (confidence 3) [4E5BBB3D] (AR v2)
Track 20 accurately ripped (confidence 3) [EEB35C69] (AR v2)
Track 21 accurately ripped (confidence 3) [17CDDF3C] (AR v2)
Track 22 accurately ripped (confidence 3) [C03DCA62] (AR v2)
Track 23 accurately ripped (confidence 3) [67C3A52F] (AR v2)
Track 24 accurately ripped (confidence 3) [8C5E998F] (AR v2)
Track 25 accurately ripped (confidence 3) [6959DEE5] (AR v2)
Track 26 accurately ripped (confidence 3) [C9F9E0EE] (AR v2)
Track 27 accurately ripped (confidence 3) [F9FC0ECD] (AR v2)
Track 28 accurately ripped (confidence 3) [C98B56C5] (AR v2)
Track 29 accurately ripped (confidence 3) [A2DD8C0C] (AR v2)
All tracks accurately ripped
End of status report
==== Log checksum F5E67A50ED837AE8B5C80F6CC399DE063C2ECED92E24EB9CF8A6CA821C78637D ====



Показать сообщения:    

Текущее время: 19-Янв 22:15

Часовой пояс: UTC + 3


Вы не можете начинать темы
Вы не можете отвечать на сообщения
Вы не можете редактировать свои сообщения
Вы не можете удалять свои сообщения
Вы не можете голосовать в опросах
Вы не можете прикреплять файлы к сообщениям
Вы не можете скачивать файлы