(Classical, 20th century) Fantasiaquintet - Premiere - Hindemith, Veress, Ligeti, Escaich - 2013, FLAC (image+.cue) lossless


 

[Цитировать]

Fantasiaquintet - Premiere - Hindemith, Veress, Ligeti, Escaich
Жанр: Classical, 20th century
Страна-производитель диска: Finland
Год издания диска: 2013
Издатель (лейбл): Pilfink Records
Дата записи: 2012
Аудиокодек: FLAC
Тип рипа: image+.cue
Битрейт аудио: lossless
Продолжительность: 45:55
Источник: собственный рип
Наличие сканов в содержимом раздачи: да
Треклист:
Paul Hindemith (1895-1963)
[1]-[5] Little Chamber Music for Wind Quintet, Op.24 No.2 (1912)
Sándor Veress (1907-1992)
[6]-[7] Diptych (1968) for Wind Quintet
György Sándor Ligeti (1923-2006)
[8]-[13] Six Bagatelles for Wind Quintet (1953)
Thierry Escaich (1965)
[14]-[16] III Instants Fugitifs for Wind Quintet (1994)
Исполнители:
Fantasiaquintet
Päivi Kukkonen flute
Laura Kemppainen oboe
Okko Kivikataja clarinet
Joonas Seppelin horn
Sari Seppelin bassoon

Лог создания рипа

Exact Audio Copy V1.0 beta 3 from 29. August 2011
EAC extraction logfile from 3. April 2014, 18:25
Fantasiaquintet / Fantasiaquintet - Premiere
Used drive : HL-DT-STDVDRRW GWA-4164B Adapter: 5 ID: 0
Read mode : Secure
Utilize accurate stream : Yes
Defeat audio cache : Yes
Make use of C2 pointers : No
Read offset correction : 102
Overread into Lead-In and Lead-Out : No
Fill up missing offset samples with silence : Yes
Delete leading and trailing silent blocks : No
Null samples used in CRC calculations : Yes
Used interface : Native Win32 interface for Win NT & 2000
Used output format : User Defined Encoder
Selected bitrate : 896 kBit/s
Quality : High
Add ID3 tag : No
Command line compressor : C:\Program Files\Exact Audio Copy\FLAC\FLAC.EXE
Additional command line options : -V -8 %source%
TOC of the extracted CD
Track | Start | Length | Start sector | End sector
---------------------------------------------------------
1 | 0:00.00 | 2:52.11 | 0 | 12910
2 | 2:52.11 | 1:56.14 | 12911 | 21624
3 | 4:48.25 | 4:31.48 | 21625 | 41997
4 | 9:19.73 | 0:50.14 | 41998 | 45761
5 | 10:10.12 | 3:02.59 | 45762 | 59470
6 | 13:12.71 | 5:50.57 | 59471 | 85777
7 | 19:03.53 | 3:53.59 | 85778 | 103311
8 | 22:57.37 | 1:12.30 | 103312 | 108741
9 | 24:09.67 | 2:59.32 | 108742 | 122198
10 | 27:09.24 | 2:56.14 | 122199 | 135412
11 | 30:05.38 | 1:00.30 | 135413 | 139942
12 | 31:05.68 | 2:30.08 | 139943 | 151200
13 | 33:36.01 | 1:32.01 | 151201 | 158101
14 | 35:08.02 | 3:52.27 | 158102 | 175528
15 | 39:00.29 | 4:26.38 | 175529 | 195516
16 | 43:26.67 | 2:34.14 | 195517 | 207080
Range status and errors
Selected range
Filename D:\temp\Music\Fantasiaquintet - Premiere\Fantasiaquintet - Premiere.wav
Peak level 95.6 %
Extraction speed 2.8 X
Range quality 100.0 %
Test CRC 2103B600
Copy CRC 2103B600
Copy OK
No errors occurred
AccurateRip summary
Track 1 not present in database
Track 2 not present in database
Track 3 not present in database
Track 4 not present in database
Track 5 not present in database
Track 6 not present in database
Track 7 not present in database
Track 8 not present in database
Track 9 not present in database
Track 10 not present in database
Track 11 not present in database
Track 12 not present in database
Track 13 not present in database
Track 14 not present in database
Track 15 not present in database
Track 16 not present in database
None of the tracks are present in the AccurateRip database
End of status report
==== Log checksum 3122FEC8994F7C638078CBED1AE5A15FC26BD9B142FE226AC2F6C3079CA78A37 ====



Показать сообщения:    

Текущее время: 03-Дек 12:39

Часовой пояс: UTC + 3


Вы не можете начинать темы
Вы не можете отвечать на сообщения
Вы не можете редактировать свои сообщения
Вы не можете удалять свои сообщения
Вы не можете голосовать в опросах
Вы не можете прикреплять файлы к сообщениям
Вы не можете скачивать файлы