(Classical) Johann Sebastian Bach - Concerto for 2 Violins,Italian Concerto,Violin Concerto A minor,Chromatic Fantasy and Fugue,Brandenburg Concerto No. 4 (Tozzi,Vecchi,Jaccottet; Macci,Swarowsky) - 1988, WavPack (iso.wv) lossless


 

[Цитировать]

Johann Sebastian Bach-
Concerto for 2 Violins, Italian Concerto, Violin Concerto A minor,
Chromatic Fantasy and Fugue, Brandenburg Concerto No. 4

(Tozzi,Vecchi,Jaccottet; Macci,Swarowsky)
Johann Sebastian Bach (1685-1750) Жанр: Classical
Страна-производитель диска: Holland
Год издания диска: 1988
Издатель (лейбл): Masters Classic
Номер по каталогу: CLS 4001
Дата записи: 1988
Аудиокодек: WavPack
Тип рипа: iso.wv
Битрейт аудио: lossless
Продолжительность: 01:15:12
Источник: edenika
Наличие сканов в содержимом раздачи: да
Треклист:
Concerto for 2 Violins and Orchestra in D minor BWV 1043 (16:25)
01. Vivace (3:57)
02. Largo, ma non tanto (7:14)
03. Allegro (5:11)
Alberto Tozzi, Tomaso Vecchi Violin
Musici di San Marco, Cond.: Francesco Macci

Italian Concerto in F major BWV 971 (12:31)
04. (Allegro) (4:11)
05. Andante (4:08)
06. Presto (4:09)
Christiane Jaccottet Harpsichord
Violin Concerto in A minor BWV 1041 (15:05)
07. Allegro (4:07)
08. Andante (6:50)
09. Allegro assai (4:10)
Alberto Tozzi, Violin
Musici di San Marco, Cond.: Francesco Macci

Chromatic Fantasy and Fugue in D minor BWV 903 (13:03)
10. Fantasia (3:45)
11. Recitativo (3:52)
12. Fuga (5:26)
Christiane Jaccottet Harpsichord
Brandenburg Concerto No. 4 in G major BWV 1049 (17:45)
13. Allegro (7:56)
14. Andante (4:03)
15. Presto (5:40)
Philharmonisches Orchester Bamberg, Cond.: Hans Swarowsky
Исполнители:
Alberto Tozzi, Tomaso Vecchi Violin
Christiane Jaccottet Harpsichord
Musici di San Marco, Cond.: Francesco Macci
Philharmonisches Orchester Bamberg, Cond.: Hans Swarowsky

Перечень файлов (содержимое) контейнера в текстовом виде.

1. Содержимое CUE-файла.
2. Отчёт ЕАС.
3. Аудиофайл (.wv)
4. Сканы: буклет, диск, (полные) PNG;
5. тех. данные
6. Сканы front, CD, Back формат jpeg

Лог создания рипа

Exact Audio Copy V1.0 beta 3 from 29. August 2011
EAC extraction logfile from 5. June 2014, 20:02
Bach / Concertos
Used drive : ASUS SDRW-08D2S-U Adapter: 4 ID: 1
Read mode : Secure
Utilize accurate stream : Yes
Defeat audio cache : Yes
Make use of C2 pointers : No
Read offset correction : 6
Overread into Lead-In and Lead-Out : No
Fill up missing offset samples with silence : Yes
Delete leading and trailing silent blocks : No
Null samples used in CRC calculations : Yes
Used interface : Native Win32 interface for Win NT & 2000
Used output format : Internal WAV Routines
Sample format : 44.100 Hz; 16 Bit; Stereo
TOC of the extracted CD
Track | Start | Length | Start sector | End sector
---------------------------------------------------------
1 | 0:00.00 | 3:59.38 | 0 | 17962
2 | 3:59.38 | 7:14.67 | 17963 | 50579
3 | 11:14.30 | 5:16.43 | 50580 | 74322
4 | 16:30.73 | 4:12.35 | 74323 | 93257
5 | 20:43.33 | 4:09.32 | 93258 | 111964
6 | 24:52.65 | 4:15.10 | 111965 | 131099
7 | 29:08.00 | 4:09.45 | 131100 | 149819
8 | 33:17.45 | 6:51.50 | 149820 | 180694
9 | 40:09.20 | 4:10.55 | 180695 | 199499
10 | 44:20.00 | 3:44.35 | 199500 | 216334
11 | 48:04.35 | 3:52.60 | 216335 | 233794
12 | 51:57.20 | 5:30.55 | 233795 | 258599
13 | 57:28.00 | 7:58.48 | 258600 | 294497
14 | 65:26.48 | 4:05.35 | 294498 | 312907
15 | 69:32.08 | 5:40.15 | 312908 | 338422
Range status and errors
Selected range
Filename C:\Music CD\Bach - Concertos.wav
Peak level 91.1 %
Extraction speed 5.2 X
Range quality 100.0 %
Test CRC 6C559A7B
Copy CRC 6C559A7B
Copy OK
No errors occurred
AccurateRip summary
Track 1 accurately ripped (confidence 2) [4D3D6822] (AR v2)
Track 2 accurately ripped (confidence 2) [2DB713F8] (AR v2)
Track 3 accurately ripped (confidence 1) [68558D2C] (AR v2)
Track 4 accurately ripped (confidence 2) [2CB9A4AC] (AR v2)
Track 5 accurately ripped (confidence 2) [D4495439] (AR v2)
Track 6 accurately ripped (confidence 2) [56882386] (AR v2)
Track 7 accurately ripped (confidence 1) [D464069C] (AR v2)
Track 8 accurately ripped (confidence 1) [CC482B1F] (AR v2)
Track 9 accurately ripped (confidence 2) [733E321B] (AR v2)
Track 10 accurately ripped (confidence 2) [020B55E3] (AR v2)
Track 11 accurately ripped (confidence 2) [5D67B019] (AR v2)
Track 12 accurately ripped (confidence 2) [FB01EDED] (AR v2)
Track 13 accurately ripped (confidence 2) [F71608F4] (AR v2)
Track 14 accurately ripped (confidence 2) [9D60CCE5] (AR v2)
Track 15 accurately ripped (confidence 2) [177B09F3] (AR v2)
All tracks accurately ripped
End of status report
==== Log checksum 165639536DD943F8368BF4892C8BB431D77165E6A1F229B80737AB887B35693C ====

Содержание индексной карты (.CUE)

REM GENRE Classical
REM DATE 1988
REM DISCID E711A00F
REM COMMENT "ExactAudioCopy v1.0b3"
PERFORMER "Bach"
TITLE "Concertos"
FILE "Bach - Concertos.wav" WAVE
TRACK 01 AUDIO
TITLE "Vivace - Concerto for 2 violins and orchestra"
PERFORMER "Bach"
INDEX 01 00:00:00
TRACK 02 AUDIO
TITLE "Largo, ma non tanto - Concerto for 2 violins and orchestra"
PERFORMER "Bach"
INDEX 00 03:56:45
INDEX 01 03:59:38
TRACK 03 AUDIO
TITLE "Allegro - Concerto for 2 violins and orchestra"
PERFORMER "Bach"
INDEX 00 11:13:03
INDEX 01 11:14:30
TRACK 04 AUDIO
TITLE "Allergo - Italian concerto in F major BWV 971"
PERFORMER "Bach"
INDEX 00 16:24:50
INDEX 01 16:30:73
TRACK 05 AUDIO
TITLE "Andante - Italian concerto in F major"
PERFORMER "Bach"
INDEX 00 20:41:53
INDEX 01 20:43:33
TRACK 06 AUDIO
TITLE "Presto - Italian concerto in F major"
PERFORMER "Bach"
INDEX 00 24:50:58
INDEX 01 24:52:65
TRACK 07 AUDIO
TITLE "Allegro - Violin concerto in A minor"
PERFORMER "Bach"
INDEX 00 29:00:70
INDEX 01 29:08:00
TRACK 08 AUDIO
TITLE "Andate - Violin concerto in A minor"
PERFORMER "Bach"
INDEX 00 33:14:68
INDEX 01 33:17:45
TRACK 09 AUDIO
TITLE "Allegro assai - Violin concerto in A minor"
PERFORMER "Bach"
INDEX 00 40:07:55
INDEX 01 40:09:20
TRACK 10 AUDIO
TITLE "Fantasia - Chromatic fantasy and fugue in D minor"
PERFORMER "Bach"
INDEX 00 44:12:33
INDEX 01 44:20:00
TRACK 11 AUDIO
TITLE "Recitativo - Chromatic fantasy and fugue in D minor"
PERFORMER "Bach"
INDEX 01 48:04:35
TRACK 12 AUDIO
TITLE "Fuga - Chromatic fantasy and fugue in D minor"
PERFORMER "Bach"
INDEX 01 51:57:20
TRACK 13 AUDIO
TITLE "Allegro - Bandenburg concerto No. 4 in G major"
PERFORMER "Bach"
INDEX 00 57:22:63
INDEX 01 57:28:00
TRACK 14 AUDIO
TITLE "Andante - Brandenburg concerto no. 4 in G major"
PERFORMER "Bach"
INDEX 00 65:23:23
INDEX 01 65:26:48
TRACK 15 AUDIO
TITLE "Presto - Brandenburg concerto no. 4 in G major"
PERFORMER "Bach"
INDEX 00 69:28:69
INDEX 01 69:32:08

Лог проверки качества


 

Скриншот спектра частот




Показать сообщения:    

Текущее время: 03-Дек 09:47

Часовой пояс: UTC + 3


Вы не можете начинать темы
Вы не можете отвечать на сообщения
Вы не можете редактировать свои сообщения
Вы не можете удалять свои сообщения
Вы не можете голосовать в опросах
Вы не можете прикреплять файлы к сообщениям
Вы не можете скачивать файлы