(Classical, contemporary) Kimmo Hakola - Clarinet Quintet; loco; Capriole - Kari Kriikku, Avanti! Quartet, Anssi Karttunen - 2002, FLAC (image+.cue) lossless


 

[Цитировать]

Kimmo Hakola - Clarinet Quintet; loco; Capriole - Kari Kriikku, Avanti! Quartet, Anssi Karttunen
Жанр: Classical, contemporary
Страна-производитель диска: Finland
Год издания диска: 2002
Издатель (лейбл): Ondine
Номер по каталогу: ODE 960-2
Дата записи: 1993, 1999, 2001
Аудиокодек: FLAC
Тип рипа: image+.cue
Битрейт аудио: lossless
Продолжительность: 71:04
Источник: собственный рип
Наличие сканов в содержимом раздачи: да
Треклист:
Kimmo Hakola (b.1958)
[1]-[2] Clarinet Quintet
[3] loco for clarinet solo
[4] Capriole for bass clarinet and cello
Исполнители:
Kari Kriikku clarinet
Avanti! Quartet
John Storgårds violin
Anna Hohti-Jaatinen violin
Tuula Riisalo viola
Lea Pekkala cello
Anssi Karttunen cello

Лог создания рипа

Exact Audio Copy V1.0 beta 3 from 29. August 2011
EAC extraction logfile from 30. March 2014, 21:30
Kari Kriikku, Avanti! Quartet / Hakola - Clarinet Quintet; loco; Capriole
Used drive : HL-DT-STDVDRAM GSA-4083N Adapter: 1 ID: 0
Read mode : Secure
Utilize accurate stream : Yes
Defeat audio cache : Yes
Make use of C2 pointers : No
Read offset correction : 667
Overread into Lead-In and Lead-Out : No
Fill up missing offset samples with silence : Yes
Delete leading and trailing silent blocks : No
Null samples used in CRC calculations : Yes
Used interface : Native Win32 interface for Win NT & 2000
Used output format : User Defined Encoder
Selected bitrate : 896 kBit/s
Quality : High
Add ID3 tag : No
Command line compressor : C:\Program Files\Exact Audio Copy\Flac\flac.exe
Additional command line options : -V -8 %source%
TOC of the extracted CD
Track | Start | Length | Start sector | End sector
---------------------------------------------------------
1 | 0:00.00 | 13:44.37 | 0 | 61836
2 | 13:44.37 | 28:44.71 | 61837 | 191207
3 | 42:29.33 | 19:54.63 | 191208 | 280820
4 | 62:24.21 | 8:37.19 | 280821 | 319614
Range status and errors
Selected range
Filename J:\New Music\Hakola - Clarinet Quintet; loco; Capriole\Hakola - Clarinet Quintet; loco; Capriole.wav
Peak level 100.0 %
Extraction speed 2.7 X
Range quality 100.0 %
Test CRC 923C2A99
Copy CRC 923C2A99
Copy OK
No errors occurred
AccurateRip summary
Track 1 accurately ripped (confidence 1) [04303B81] (AR v1)
Track 2 accurately ripped (confidence 1) [123735B9] (AR v1)
Track 3 accurately ripped (confidence 1) [60F58146] (AR v1)
Track 4 accurately ripped (confidence 1) [BDD208DA] (AR v1)
All tracks accurately ripped
End of status report
==== Log checksum 1B04A503D228402B5653862246C38777D175E3083E69D1088CAB0F086212939C ====



Показать сообщения:    

Текущее время: 09-Дек 14:41

Часовой пояс: UTC + 3


Вы не можете начинать темы
Вы не можете отвечать на сообщения
Вы не можете редактировать свои сообщения
Вы не можете удалять свои сообщения
Вы не можете голосовать в опросах
Вы не можете прикреплять файлы к сообщениям
Вы не можете скачивать файлы