(Classical) Bach J.S. - Concertos For Two Harpischords (Masato Suzuki, Masaaki Suzuki, Bach Collegium Japan) - 2014, FLAC (tracks+.cue) lossless


 

[Цитировать]

Bach J.S. - Concertos For Two Harpischords (Masato Suzuki, Masaaki Suzuki, Bach Collegium Japan)
Жанр: Classical
Год издания диска: 2014
Издатель (лейбл): Bis
Номер по каталогу: 2051
Аудиокодек: FLAC
Тип рипа: tracks+.cue
Битрейт аудио: lossless
Продолжительность: 01:11:08
Источник: скачано из сети
Наличие сканов в содержимом раздачи: да
Исполнители:
Masato Suzuki,
Masaaki Suzuki
Bach Collegium Japan
Треклист:
Concerto in C minor, BWV1062
1. I. 3'32
2. II. Andante e piano 5'54
3. III. Allegro assai 4'22
Concerto in C major, BWV1061
4. I. 7'21
5. II. Adagio ovvero Largo 4'55
6. III. Fuga. Vivace 5'59
Orchestral Suite No.1 in C major, BWV1066
arranged for two harpsichords by Masato Suzuki
7. I. Ouverture 9'59
8. II. Courante 2'24
9. III. Gavotte I/II 2'44
10. IV. Forlane 1'17
11. V. Menuet I/II 2'42
12. VI. Bourrée I/II 2'14
13. VII. Passepied I/II 2'46
Concerto in C minor, BWV1060
14. I. Allegro 4'47
15. II. Largo ovvero Adagio 5'02
16. III. Allegro 3'29

LOG EAC:

Exact Audio Copy V1.0 beta 3 from 29. August 2011
EAC extraction logfile from 22. May 2014, 19:14
Masaaki & Masato Suzuki, Bach Collegium Japan / Concertos for Two Harpsichords
Used drive : hp CDDVDW TS-L633N Adapter: 1 ID: 0
Read mode : Secure
Utilize accurate stream : Yes
Defeat audio cache : Yes
Make use of C2 pointers : No
Read offset correction : 6
Overread into Lead-In and Lead-Out : No
Fill up missing offset samples with silence : Yes
Delete leading and trailing silent blocks : No
Null samples used in CRC calculations : Yes
Used interface : Native Win32 interface for Win NT & 2000
Gap handling : Appended to previous track
Used output format : User Defined Encoder
Selected bitrate : 768 kBit/s
Quality : High
Add ID3 tag : No
Command line compressor : C:\Program Files (x86)\Exact Audio Copy\FLAC\FLAC.EXE
Additional command line options : -6 -V -T "ARTIST=%artist%" -T "TITLE=%title%" -T "ALBUM=%albumtitle%" -T "DATE=%year%" -T "TRACKNUMBER=%tracknr%" -T "GENRE=%genre%" -T "COMMENT=%comment%" -T "BAND=%albuminterpret%" -T "ALBUMARTIST=%albuminterpret%" -T "COMPOSER=%composer%" %haslyrics%--tag-from-file=LYRICS="%lyricsfile%"%haslyrics% -T "DISCNUMBER=%cdnumber%" -T "TOTALDISCS=%totalcds%" -T "TOTALTRACKS=%numtracks%" %hascover%--picture="%coverfile%"%hascover% %source% -o %dest%
TOC of the extracted CD
Track | Start | Length | Start sector | End sector
---------------------------------------------------------
1 | 0:00.00 | 3:36.73 | 0 | 16272
2 | 3:36.73 | 5:55.53 | 16273 | 42950
3 | 9:32.51 | 4:37.04 | 42951 | 63729
4 | 14:09.55 | 7:27.08 | 63730 | 97262
5 | 21:36.63 | 4:57.10 | 97263 | 119547
6 | 26:33.73 | 6:15.21 | 119548 | 147693
7 | 32:49.19 | 10:03.30 | 147694 | 192948
8 | 42:52.49 | 2:25.61 | 192949 | 203884
9 | 45:18.35 | 2:44.49 | 203885 | 216233
10 | 48:03.09 | 1:18.51 | 216234 | 222134
11 | 49:21.60 | 2:42.49 | 222135 | 234333
12 | 52:04.34 | 2:14.56 | 234334 | 244439
13 | 54:19.15 | 3:01.17 | 244440 | 258031
14 | 57:20.32 | 4:50.37 | 258032 | 279818
15 | 62:10.69 | 5:04.32 | 279819 | 302650
16 | 67:15.26 | 3:53.12 | 302651 | 320137
Track 1
Filename F:\EAC\Bach (JS) - Concertos for Two Harpsichords - Masaaki & Masato Suzuki, Bach Collegium Japan\01 Concerto in c minor (BWV 1062) - [n.t.].wav
Pre-gap length 0:00:02.00
Peak level 62.8 %
Extraction speed 2.5 X
Track quality 100.0 %
Test CRC 343B485C
Copy CRC 343B485C
Accurately ripped (confidence 1) [13E732A2] (AR v2)
Copy OK
Track 2
Filename F:\EAC\Bach (JS) - Concertos for Two Harpsichords - Masaaki & Masato Suzuki, Bach Collegium Japan\02 Concerto in c minor (BWV 1062) - andante e piano.wav
Peak level 41.5 %
Extraction speed 3.0 X
Track quality 100.0 %
Test CRC 99AB41A7
Copy CRC 99AB41A7
Accurately ripped (confidence 1) [276AB6F0] (AR v2)
Copy OK
Track 3
Filename F:\EAC\Bach (JS) - Concertos for Two Harpsichords - Masaaki & Masato Suzuki, Bach Collegium Japan\03 Concerto in c minor (BWV 1062) - allegro assai.wav
Peak level 71.2 %
Extraction speed 3.2 X
Track quality 100.0 %
Test CRC 806AF558
Copy CRC 806AF558
Accurately ripped (confidence 1) [CFD47AAF] (AR v2)
Copy OK
Track 4
Filename F:\EAC\Bach (JS) - Concertos for Two Harpsichords - Masaaki & Masato Suzuki, Bach Collegium Japan\04 Concerto in C (BWV 1061) - [n.t.].wav
Peak level 63.1 %
Extraction speed 3.6 X
Track quality 100.0 %
Test CRC A49D35CB
Copy CRC A49D35CB
Accurately ripped (confidence 1) [F2E70387] (AR v2)
Copy OK
Track 5
Filename F:\EAC\Bach (JS) - Concertos for Two Harpsichords - Masaaki & Masato Suzuki, Bach Collegium Japan\05 Concerto in C (BWV 1061) - adagio ovvero largo.wav
Peak level 27.1 %
Extraction speed 3.0 X
Track quality 99.9 %
Test CRC C13813F0
Copy CRC C13813F0
Accurately ripped (confidence 1) [77B4D25A] (AR v2)
Copy OK
Track 6
Filename F:\EAC\Bach (JS) - Concertos for Two Harpsichords - Masaaki & Masato Suzuki, Bach Collegium Japan\06 Concerto in C (BWV 1061) - fuga. vivace.wav
Peak level 70.9 %
Extraction speed 3.9 X
Track quality 100.0 %
Test CRC AF0CDBC5
Copy CRC AF0CDBC5
Accurately ripped (confidence 1) [216C03E7] (AR v2)
Copy OK
Track 7
Filename F:\EAC\Bach (JS) - Concertos for Two Harpsichords - Masaaki & Masato Suzuki, Bach Collegium Japan\07 Overture No. 1 in C (BWV 1066) - ouverture.wav
Peak level 48.0 %
Extraction speed 4.4 X
Track quality 100.0 %
Test CRC 140E1894
Copy CRC 140E1894
Accurately ripped (confidence 1) [9B1F29EF] (AR v2)
Copy OK
Track 8
Filename F:\EAC\Bach (JS) - Concertos for Two Harpsichords - Masaaki & Masato Suzuki, Bach Collegium Japan\08 Overture No. 1 in C (BWV 1066) - courante.wav
Peak level 31.9 %
Extraction speed 3.9 X
Track quality 100.0 %
Test CRC E22EB6E3
Copy CRC E22EB6E3
Accurately ripped (confidence 1) [B499BF75] (AR v2)
Copy OK
Track 9
Filename F:\EAC\Bach (JS) - Concertos for Two Harpsichords - Masaaki & Masato Suzuki, Bach Collegium Japan\09 Overture No. 1 in C (BWV 1066) - gavotte I & II.wav
Peak level 31.5 %
Extraction speed 3.0 X
Track quality 99.9 %
Test CRC F1FE0C3B
Copy CRC F1FE0C3B
Accurately ripped (confidence 1) [5EC0371C] (AR v2)
Copy OK
Track 10
Filename F:\EAC\Bach (JS) - Concertos for Two Harpsichords - Masaaki & Masato Suzuki, Bach Collegium Japan\10 Overture No. 1 in C (BWV 1066) - forlane.wav
Peak level 35.6 %
Extraction speed 2.1 X
Track quality 99.8 %
Test CRC C9CC4BD5
Copy CRC C9CC4BD5
Accurately ripped (confidence 1) [18DD23E7] (AR v2)
Copy OK
Track 11
Filename F:\EAC\Bach (JS) - Concertos for Two Harpsichords - Masaaki & Masato Suzuki, Bach Collegium Japan\11 Overture No. 1 in C (BWV 1066) - menuet I & II.wav
Peak level 34.8 %
Extraction speed 3.1 X
Track quality 99.9 %
Test CRC C1E046C5
Copy CRC C1E046C5
Accurately ripped (confidence 1) [1EF32A8B] (AR v2)
Copy OK
Track 12
Filename F:\EAC\Bach (JS) - Concertos for Two Harpsichords - Masaaki & Masato Suzuki, Bach Collegium Japan\12 Overture No. 1 in C (BWV 1066) - bourrée I & II.wav
Peak level 39.9 %
Extraction speed 2.8 X
Track quality 99.9 %
Test CRC AED96F7E
Copy CRC AED96F7E
Accurately ripped (confidence 1) [1C5C51CF] (AR v2)
Copy OK
Track 13
Filename F:\EAC\Bach (JS) - Concertos for Two Harpsichords - Masaaki & Masato Suzuki, Bach Collegium Japan\13 Overture No. 1 in C (BWV 1066) - passepied I & II.wav
Peak level 34.4 %
Extraction speed 3.3 X
Track quality 99.9 %
Test CRC 375C9E18
Copy CRC 375C9E18
Accurately ripped (confidence 1) [B80C3873] (AR v2)
Copy OK
Track 14
Filename F:\EAC\Bach (JS) - Concertos for Two Harpsichords - Masaaki & Masato Suzuki, Bach Collegium Japan\14 Concerto in c minor (BWV 1060) - allegro.wav
Peak level 75.4 %
Extraction speed 3.9 X
Track quality 99.9 %
Test CRC D8EA6DC2
Copy CRC D8EA6DC2
Accurately ripped (confidence 1) [CAA69514] (AR v2)
Copy OK
Track 15
Filename F:\EAC\Bach (JS) - Concertos for Two Harpsichords - Masaaki & Masato Suzuki, Bach Collegium Japan\15 Concerto in c minor (BWV 1060) - largo ovvero adagio.wav
Peak level 42.4 %
Extraction speed 4.1 X
Track quality 99.9 %
Test CRC 4CFF26ED
Copy CRC 4CFF26ED
Accurately ripped (confidence 1) [8A7A3A00] (AR v2)
Copy OK
Track 16
Filename F:\EAC\Bach (JS) - Concertos for Two Harpsichords - Masaaki & Masato Suzuki, Bach Collegium Japan\16 Concerto in c minor (BWV 1060) - allegro.wav
Peak level 67.6 %
Extraction speed 4.9 X
Track quality 100.0 %
Test CRC 68175062
Copy CRC 68175062
Accurately ripped (confidence 1) [6926302D] (AR v2)
Copy OK
All tracks accurately ripped
No errors occurred
End of status report
==== Log checksum 7A80DA911ED78E21562A782B47F7239CBE6B322FBE4D54EDA6485170C5668B31 ====

LOG (.CUE):

REM GENRE Classical
REM DATE 2014
REM DISCID EF10AC10
REM COMMENT "ExactAudioCopy v1.0b3"
PERFORMER "Masaaki & Masato Suzuki, Bach Collegium Japan"
TITLE "Concertos for Two Harpsichords"
FILE "01 Concerto in c minor (BWV 1062) - [n.t.].wav" WAVE
TRACK 01 AUDIO
TITLE "Concerto in c minor (BWV 1062) - [n.t.]"
PERFORMER "Masaaki & Masato Suzuki, Bach Collegium Japan"
INDEX 01 00:00:00
FILE "02 Concerto in c minor (BWV 1062) - andante e piano.wav" WAVE
TRACK 02 AUDIO
TITLE "Concerto in c minor (BWV 1062) - andante e piano"
PERFORMER "Masaaki & Masato Suzuki, Bach Collegium Japan"
INDEX 01 00:00:00
FILE "03 Concerto in c minor (BWV 1062) - allegro assai.wav" WAVE
TRACK 03 AUDIO
TITLE "Concerto in c minor (BWV 1062) - allegro assai"
PERFORMER "Masaaki & Masato Suzuki, Bach Collegium Japan"
INDEX 01 00:00:00
FILE "04 Concerto in C (BWV 1061) - [n.t.].wav" WAVE
TRACK 04 AUDIO
TITLE "Concerto in C (BWV 1061) - [n.t.]"
PERFORMER "Masaaki & Masato Suzuki, Bach Collegium Japan"
INDEX 01 00:00:00
FILE "05 Concerto in C (BWV 1061) - adagio ovvero largo.wav" WAVE
TRACK 05 AUDIO
TITLE "Concerto in C (BWV 1061) - adagio ovvero largo"
PERFORMER "Masaaki & Masato Suzuki, Bach Collegium Japan"
INDEX 01 00:00:00
FILE "06 Concerto in C (BWV 1061) - fuga. vivace.wav" WAVE
TRACK 06 AUDIO
TITLE "Concerto in C (BWV 1061) - fuga. vivace"
PERFORMER "Masaaki & Masato Suzuki, Bach Collegium Japan"
INDEX 01 00:00:00
FILE "07 Overture No. 1 in C (BWV 1066) - ouverture.wav" WAVE
TRACK 07 AUDIO
TITLE "Overture No. 1 in C (BWV 1066) - ouverture"
PERFORMER "Masaaki & Masato Suzuki, Bach Collegium Japan"
INDEX 01 00:00:00
FILE "08 Overture No. 1 in C (BWV 1066) - courante.wav" WAVE
TRACK 08 AUDIO
TITLE "Overture No. 1 in C (BWV 1066) - courante"
PERFORMER "Masaaki & Masato Suzuki, Bach Collegium Japan"
INDEX 01 00:00:00
FILE "09 Overture No. 1 in C (BWV 1066) - gavotte I & II.wav" WAVE
TRACK 09 AUDIO
TITLE "Overture No. 1 in C (BWV 1066) - gavotte I & II"
PERFORMER "Masaaki & Masato Suzuki, Bach Collegium Japan"
INDEX 01 00:00:00
FILE "10 Overture No. 1 in C (BWV 1066) - forlane.wav" WAVE
TRACK 10 AUDIO
TITLE "Overture No. 1 in C (BWV 1066) - forlane"
PERFORMER "Masaaki & Masato Suzuki, Bach Collegium Japan"
INDEX 01 00:00:00
FILE "11 Overture No. 1 in C (BWV 1066) - menuet I & II.wav" WAVE
TRACK 11 AUDIO
TITLE "Overture No. 1 in C (BWV 1066) - menuet I & II"
PERFORMER "Masaaki & Masato Suzuki, Bach Collegium Japan"
INDEX 01 00:00:00
FILE "12 Overture No. 1 in C (BWV 1066) - bourrйe I & II.wav" WAVE
TRACK 12 AUDIO
TITLE "Overture No. 1 in C (BWV 1066) - bourrйe I & II"
PERFORMER "Masaaki & Masato Suzuki, Bach Collegium Japan"
INDEX 01 00:00:00
FILE "13 Overture No. 1 in C (BWV 1066) - passepied I & II.wav" WAVE
TRACK 13 AUDIO
TITLE "Overture No. 1 in C (BWV 1066) - passepied I & II"
PERFORMER "Masaaki & Masato Suzuki, Bach Collegium Japan"
INDEX 01 00:00:00
FILE "14 Concerto in c minor (BWV 1060) - allegro.wav" WAVE
TRACK 14 AUDIO
TITLE "Concerto in c minor (BWV 1060) - allegro"
PERFORMER "Masaaki & Masato Suzuki, Bach Collegium Japan"
INDEX 01 00:00:00
FILE "15 Concerto in c minor (BWV 1060) - largo ovvero adagio.wav" WAVE
TRACK 15 AUDIO
TITLE "Concerto in c minor (BWV 1060) - largo ovvero adagio"
PERFORMER "Masaaki & Masato Suzuki, Bach Collegium Japan"
INDEX 01 00:00:00
FILE "16 Concerto in c minor (BWV 1060) - allegro.wav" WAVE
TRACK 16 AUDIO
TITLE "Concerto in c minor (BWV 1060) - allegro"
PERFORMER "Masaaki & Masato Suzuki, Bach Collegium Japan"
INDEX 01 00:00:00
mp3



Показать сообщения:    

Текущее время: 08-Дек 09:02

Часовой пояс: UTC + 3


Вы не можете начинать темы
Вы не можете отвечать на сообщения
Вы не можете редактировать свои сообщения
Вы не можете удалять свои сообщения
Вы не можете голосовать в опросах
Вы не можете прикреплять файлы к сообщениям
Вы не можете скачивать файлы