(Classical) Wolfgang Amadeus Mozart - Piano Concertos Nos. 6, 8 & 9 - Angela Hewitt, Orchestra da Camera di Mantova - 2011, FLAC (image+.cue) lossless


Статистика раздачи [Обновить пиров]
Размер:  295 MB   |    Зарегистрирован:  8 месяцев 23 дня   |    Скачан:  0 раз

Полного источника не было: Никогда

Личеров:  3  [  0 KB/s  ]   Подробная статистика пиров
 
   
 
 
 

[Цитировать]

Wolfgang Amadeus Mozart - Piano Concertos Nos. 6, 8 & 9 - Angela Hewitt, Orchestra da Camera di Mantova
Жанр: Classical
Страна-производитель диска: UK
Год издания диска: 2011
Издатель (лейбл): Hyperion
Номер по каталогу: CDA67840
Дата записи: 2010
Аудиокодек: FLAC
Тип рипа: image+.cue
Битрейт аудио: lossless
Продолжительность: 75:22
Источник: собственный рип
Наличие сканов в содержимом раздачи: да
Треклист:
Wolfgang Amadeus Mozart (1756-1791)
[1]-[3] Piano Concerto No.6 in B flat major, K238
[4]-[6] Piano Concerto No.8 in C major, K246 'Lützow'
[7]-[9] Piano Concerto No.9 in E flat major, K271 'Jeunehomme'
Исполнители:
Angela Hewitt piano
Orchestra da Camera di Mantova
Carlo Fabiano
leader

Лог создания рипа

Exact Audio Copy V1.0 beta 3 from 29. August 2011
EAC extraction logfile from 1. July 2014, 16:57
Angela Hewitt, Orchestra da Camera di Mantova / Mozart - Piano Concertos Nos. 6, 8 & 9
Used drive : HL-DT-STDVDRRW GWA-4164B Adapter: 5 ID: 0
Read mode : Secure
Utilize accurate stream : Yes
Defeat audio cache : Yes
Make use of C2 pointers : No
Read offset correction : 102
Overread into Lead-In and Lead-Out : No
Fill up missing offset samples with silence : Yes
Delete leading and trailing silent blocks : No
Null samples used in CRC calculations : Yes
Used interface : Native Win32 interface for Win NT & 2000
Used output format : User Defined Encoder
Selected bitrate : 896 kBit/s
Quality : High
Add ID3 tag : No
Command line compressor : C:\Program Files\Exact Audio Copy\FLAC\FLAC.EXE
Additional command line options : -V -8 %source%
TOC of the extracted CD
Track | Start | Length | Start sector | End sector
---------------------------------------------------------
1 | 0:00.00 | 6:54.64 | 0 | 31113
2 | 6:54.64 | 6:01.72 | 31114 | 58260
3 | 12:56.61 | 7:04.46 | 58261 | 90106
4 | 20:01.32 | 7:38.71 | 90107 | 124527
5 | 27:40.28 | 7:29.12 | 124528 | 158214
6 | 35:09.40 | 7:23.46 | 158215 | 191485
7 | 42:33.11 | 10:32.40 | 191486 | 238925
8 | 53:05.51 | 11:38.29 | 238926 | 291304
9 | 64:44.05 | 10:37.45 | 291305 | 339124
Range status and errors
Selected range
Filename D:\temp\Music\CDA67840 - Mozart - Piano Concertos Nos. 6, 8 & 9\Mozart - Piano Concertos Nos. 6, 8 & 9.wav
Peak level 98.9 %
Extraction speed 4.0 X
Range quality 100.0 %
Test CRC 2383D154
Copy CRC 2383D154
Copy OK
No errors occurred
AccurateRip summary
Track 1 accurately ripped (confidence 12) [D97106AB] (AR v2)
Track 2 accurately ripped (confidence 11) [670B1FEB] (AR v2)
Track 3 accurately ripped (confidence 11) [06C874EF] (AR v2)
Track 4 accurately ripped (confidence 12) [FB0D7E52] (AR v2)
Track 5 accurately ripped (confidence 12) [947EB610] (AR v2)
Track 6 accurately ripped (confidence 12) [53CC8F57] (AR v2)
Track 7 accurately ripped (confidence 11) [DBF062BA] (AR v2)
Track 8 accurately ripped (confidence 12) [B059DD66] (AR v2)
Track 9 accurately ripped (confidence 12) [52BFF968] (AR v2)
All tracks accurately ripped
End of status report
==== Log checksum 9AD78758D2E57AEFECDAFCFE3C574231A9F155DC14BC8EB11D3580907D0900C0 ====
[teatrix.ru].t18857.torrent 
Торрент: Зарегистрирован [ 2016-03-18 12:10 ] · DC9ECF19F46B66319408942897B383F9B3F3B568

Скачать .torrent

Скачать

24 KB

Статус: проверено
Скачан: 0 раз
Размер: 295 MB
terms.php



Быстрый ответ

Имя:

      
Для отправки сообщений необходимо включить JavaScript
Показать сообщения:    

Текущее время: 11-Дек 03:17

Часовой пояс: UTC + 3


Вы можете начинать темы
Вы можете отвечать на сообщения
Вы не можете редактировать свои сообщения
Вы не можете удалять свои сообщения
Вы не можете голосовать в опросах
Вы не можете прикреплять файлы к сообщениям
Вы можете скачивать файлы