(Early Music) The Baltimore Consort - Adew Dundee, Early Music of Scotland - 2003, APE (image+.cue) lossless


 

[Цитировать]

The Baltimore Consort - Adew Dundee, Early Music of Scotland
Жанр: Early Music
Страна-производитель диска: USA
Год издания диска: 2003
Издатель (лейбл): Dorian Recordings
Номер по каталогу: DOR-90314
Дата записи: 2003
Аудиокодек: APE
Тип рипа: image+.cue
Битрейт аудио: lossless
Продолжительность: 61'46
Источник: собственный рип
Наличие сканов в содержимом раздачи: да
Треклист:
1. The gowans are gay
2. Adew Dundee
3. Remeber my my deir
4. Ane ground
5. A New Scotch Song of Catherine Logy
6. The Scotch cuckold
7. Green grows the rashes
8. Alace I lie alone
9. Blew breiks
10. Adeu O desie of delyt
11. General Leslys goodnight
12. Lesleis lilt
13. Peggy is over ye sie wi' a souldier
14. I mett her in the medowe
15. The old man
16. Richt soir opprest
17. Suit smiling Katie loves me
18. Whip my toudie
19. Remember me at evening
20. A Scot's tune
21. Woe worth the tyme
22. What mightie motion
23. Branles d'escosse
Исполнители:
The Baltimore Consort:
Custer LaRue (soprano)
Ronn McFarlane (lute, bandora)
Mary Anne Ballard treble, tenor, and bass viols, recec)
Larry Lipkis (bass viol, soprano recorder)
Chris Norman (flutes, bagpipes, bodhran)
Mark Cudek (cittern, lute, bass viol)

Лог создания рипа

Exact Audio Copy V1.0 beta 3 from 29. August 2011
EAC extraction logfile from 20. June 2014, 17:26
The Baltimore Consort / Adew Dundee, Early Music of Scotland
Used drive : TSSTcorpCDDVDW SE-208AB Adapter: 1 ID: 0
Read mode : Secure
Utilize accurate stream : Yes
Defeat audio cache : Yes
Make use of C2 pointers : No
Read offset correction : 6
Overread into Lead-In and Lead-Out : No
Fill up missing offset samples with silence : Yes
Delete leading and trailing silent blocks : No
Null samples used in CRC calculations : Yes
Used interface : Native Win32 interface for Win NT & 2000
Used output format : Monkey's Audio Lossless Encoder
Selected bitrate : High Lossless Compression
Quality : High
Add ID3 tag : No
Command line compressor : C:\Program Files (x86)\Exact Audio Copy\MAC\MAC.exe
TOC of the extracted CD
Track | Start | Length | Start sector | End sector
---------------------------------------------------------
1 | 0:00.00 | 3:31.30 | 0 | 15854
2 | 3:31.30 | 1:43.46 | 15855 | 23625
3 | 5:15.01 | 4:14.38 | 23626 | 42713
4 | 9:29.39 | 3:32.22 | 42714 | 58635
5 | 13:01.61 | 2:44.55 | 58636 | 70990
6 | 15:46.41 | 3:03.20 | 70991 | 84735
7 | 18:49.61 | 1:48.25 | 84736 | 92860
8 | 20:38.11 | 2:38.25 | 92861 | 104735
9 | 23:16.36 | 1:48.11 | 104736 | 112846
10 | 25:04.47 | 2:55.56 | 112847 | 126027
11 | 28:00.28 | 2:04.09 | 126028 | 135336
12 | 30:04.37 | 1:34.14 | 135337 | 142400
13 | 31:38.51 | 0:53.29 | 142401 | 146404
14 | 32:32.05 | 1:29.12 | 146405 | 153091
15 | 34:01.17 | 0:37.65 | 153092 | 155931
16 | 34:39.07 | 5:53.03 | 155932 | 182409
17 | 40:32.10 | 1:29.03 | 182410 | 189087
18 | 42:01.13 | 1:44.69 | 189088 | 196956
19 | 43:46.07 | 1:55.49 | 196957 | 205630
20 | 45:41.56 | 2:08.30 | 205631 | 215260
21 | 47:50.11 | 2:56.35 | 215261 | 228495
22 | 50:46.46 | 7:09.74 | 228496 | 260744
23 | 57:56.45 | 3:47.52 | 260745 | 277821
Range status and errors
Selected range
Filename D:\EAC\The Baltimore Consort - Adew Dundee, Early Music of Scotland.wav
Peak level 93.2 %
Extraction speed 4.6 X
Range quality 100.0 %
Test CRC 062067F4
Copy CRC 062067F4
Copy OK
No errors occurred
AccurateRip summary
Track 1 accurately ripped (confidence 2) [736A8A7F] (AR v2)
Track 2 accurately ripped (confidence 2) [1F80B807] (AR v2)
Track 3 accurately ripped (confidence 2) [A8026E37] (AR v2)
Track 4 accurately ripped (confidence 2) [F76EF73F] (AR v2)
Track 5 accurately ripped (confidence 2) [A34B474B] (AR v2)
Track 6 accurately ripped (confidence 2) [2FE0569D] (AR v2)
Track 7 accurately ripped (confidence 2) [5889E2BB] (AR v2)
Track 8 accurately ripped (confidence 2) [0B31FB9D] (AR v2)
Track 9 accurately ripped (confidence 2) [74F7529E] (AR v2)
Track 10 accurately ripped (confidence 2) [0B59A487] (AR v2)
Track 11 accurately ripped (confidence 2) [F98D2ACB] (AR v2)
Track 12 accurately ripped (confidence 2) [11CFE04C] (AR v2)
Track 13 accurately ripped (confidence 2) [548F3103] (AR v2)
Track 14 accurately ripped (confidence 2) [A53B2178] (AR v2)
Track 15 accurately ripped (confidence 2) [4043D188] (AR v2)
Track 16 accurately ripped (confidence 2) [4D2FB6BA] (AR v2)
Track 17 accurately ripped (confidence 2) [EF3D8605] (AR v2)
Track 18 accurately ripped (confidence 2) [DD15E296] (AR v2)
Track 19 accurately ripped (confidence 2) [31528D15] (AR v2)
Track 20 accurately ripped (confidence 2) [F53C43F4] (AR v2)
Track 21 accurately ripped (confidence 2) [ED96959B] (AR v2)
Track 22 accurately ripped (confidence 2) [17B385FF] (AR v2)
Track 23 accurately ripped (confidence 2) [1A1ABD42] (AR v2)
All tracks accurately ripped
End of status report
---- CUETools DB Plugin V2.1.3
[CTDB TOCID: pDp010Wz_EMDYgwYfiIIpnbMXyw-] found, Submit result: pDp010Wz_EMDYgwYfiIIpnbMXyw- has been confirmed
[c0b0f990] (2/2) Accurately ripped
==== Log checksum 5DA17576344461A8823B5EED9FDFB55E35782526F3959745C6759DEA2135EBED ====

Содержание индексной карты (.CUE)

REM GENRE "Vocal / Instrumental"
REM DATE 2002
REM DISCID 3A0E7817
REM COMMENT "ExactAudioCopy v1.0b3"
PERFORMER "The Baltimore Consort"
TITLE "Adew Dundee, Early Music of Scotland"
FILE "The Baltimore Consort - Adew Dundee, Early Music of Scotland.ape" WAVE
TRACK 01 AUDIO
TITLE "The gowans are gay (John Forbes, Cantus, Songs and Fancies 1662)"
PERFORMER "The Baltimore Consort"
INDEX 01 00:00:00
TRACK 02 AUDIO
TITLE "Adew Dundee (Skene Mandora MS c 1630-33)"
PERFORMER "The Baltimore Consort"
INDEX 01 03:31:30
TRACK 03 AUDIO
TITLE "Remeber my my deir (Robert Edwards' Commonplace Book 1630-35)"
PERFORMER "The Baltimore Consort"
INDEX 00 05:08:45
INDEX 01 05:15:01
TRACK 04 AUDIO
TITLE "Ane ground (Duncan Burnett's Music Book 1610)"
PERFORMER "The Baltimore Consort"
INDEX 01 09:29:39
TRACK 05 AUDIO
TITLE "A New Scotch Song of Catherine Logy (Wit and Mirth; or, Pills to Purge Melanc..."
PERFORMER "The Baltimore Consort"
INDEX 00 12:56:71
INDEX 01 13:01:61
TRACK 06 AUDIO
TITLE "The Scotch cuckold (Pills to Purge Melancholy)"
PERFORMER "The Baltimore Consort"
INDEX 01 15:46:41
TRACK 07 AUDIO
TITLE "Green grows the rashes (Balcarres Lute Book 1692-94)"
PERFORMER "The Baltimore Consort"
INDEX 01 18:49:61
TRACK 08 AUDIO
TITLE "Alace I lie alone (Skene Mandora MS)"
PERFORMER "The Baltimore Consort"
INDEX 00 20:32:22
INDEX 01 20:38:11
TRACK 09 AUDIO
TITLE "Blew breiks (Skene Mandora MS)"
PERFORMER "The Baltimore Consort"
INDEX 01 23:16:36
TRACK 10 AUDIO
TITLE "Adeu O desie of delyt (Andro Blackhall, 1535-1609, Thomas Wode's Partbooks)"
PERFORMER "The Baltimore Consort"
INDEX 01 25:04:47
TRACK 11 AUDIO
TITLE "General Leslys goodnight (Wemyss Lute Book c 1645)"
PERFORMER "The Baltimore Consort"
INDEX 00 27:55:37
INDEX 01 28:00:28
TRACK 12 AUDIO
TITLE "Lesleis lilt (Skene Mandora MS)"
PERFORMER "The Baltimore Consort"
INDEX 01 30:04:37
TRACK 13 AUDIO
TITLE "Peggy is over ye sie wi' a souldier (Skene Mandora MS)"
PERFORMER "The Baltimore Consort"
INDEX 01 31:38:51
TRACK 14 AUDIO
TITLE "I mett her in the medowe (Skene Mandora MS)"
PERFORMER "The Baltimore Consort"
INDEX 01 32:32:05
TRACK 15 AUDIO
TITLE "The old man (Straloch Lute Book c 1627-29)"
PERFORMER "The Baltimore Consort"
INDEX 01 34:01:17
TRACK 16 AUDIO
TITLE "Richt soir opprest (The Art of Music Collecit ...c 1580)"
PERFORMER "The Baltimore Consort"
INDEX 00 34:32:62
INDEX 01 34:39:07
TRACK 17 AUDIO
TITLE "Suit smiling Katie loves me (Panmure MS c 1680)"
PERFORMER "The Baltimore Consort"
INDEX 00 40:24:00
INDEX 01 40:32:10
TRACK 18 AUDIO
TITLE "Whip my toudie (Straloch Lute Book)"
PERFORMER "The Baltimore Consort"
INDEX 01 42:01:13
TRACK 19 AUDIO
TITLE "Remember me at evening (Skene Mandora MS)"
PERFORMER "The Baltimore Consort"
INDEX 01 43:46:07
TRACK 20 AUDIO
TITLE "A Scot's tune (Skene Mandora MS)"
PERFORMER "The Baltimore Consort"
INDEX 01 45:41:56
TRACK 21 AUDIO
TITLE "Woe worth the tyme (Thomas Wode's Partbooks 1562-1590)"
PERFORMER "The Baltimore Consort"
INDEX 00 47:44:47
INDEX 01 47:50:11
TRACK 22 AUDIO
TITLE "What mightie motion (Thomas Wode's Partbooks)"
PERFORMER "The Baltimore Consort"
INDEX 01 50:46:46
TRACK 23 AUDIO
TITLE "Branles d'escosse (Estienne du Tertre, VIIme livre de danceries 1557)"
PERFORMER "The Baltimore Consort"
INDEX 00 57:51:73
INDEX 01 57:56:45
Доп. информация:
The Baltimore Consort was founded by Roger Harmon and Mindy Rosenfeld in 1980. Harmon formerly had taught lute at the Peabody Conservatory in Baltimore, Maryland. They performed together for ten years before releasing their first album for Dorian Recordings, a collection of Scottish music called On the Banks of Helicon. By the time of that recording the ensemble consisted of Custer LaRue (soprano), Ronn McFarlane (lute), Mary Anne Ballard (viols, fiddle), Larry Lipkis (bass viol, recorder), Chris Norman (flutes, bagpipes, bodhran), Howard Bass (bandora), and Mark Cudek (cittern, bass viol). Norman was replaced in 2003 by Mindy Rosenfeld, founding member of the original 1980 group whom he had replaced in 1987, and LaRue began an indefinite leave of absence in 2004, at which time countertenor José Lemos began performing with the group, joined in 2005 by soprano Danielle Svonavec.
The group has recorded some 15 albums for Dorian, including a Christmas album, Bright Day Star, and a collection of bawdy songs with the a capella quartet called the Merry Companions, The Art of the Bawdy Song and a 2007 instrumental compilation, Gut, Wind and Wire. Their various recordings also cover a number of the Child ballads.



Показать сообщения:    

Текущее время: 09-Дек 10:50

Часовой пояс: UTC + 3


Вы не можете начинать темы
Вы не можете отвечать на сообщения
Вы не можете редактировать свои сообщения
Вы не можете удалять свои сообщения
Вы не можете голосовать в опросах
Вы не можете прикреплять файлы к сообщениям
Вы не можете скачивать файлы