(Trio sonatas) Gluck - The Seven Trio Sonatas / Глюк - Семь трио сонат (Aura Musicale, Balazs Mate) - 2003, FLAC (tracks+.cue) lossless


 

[Цитировать]

Gluck: The Seven Trio Sonatas

Жанр: Trio sonatas
Страна-производитель диска: Венгрия?
Год издания диска: 2003
Издатель (лейбл): Hungaroton
Номер по каталогу: HCD 32158
Дата записи: 2003
Аудиокодек: FLAC
Тип рипа: tracks+.cue
Битрейт аудио: lossless
Продолжительность: 1:14:30
Источник: релизер
сайт-источник/ник/другое: Duckjammy
Наличие сканов в содержимом раздачи: да
Треклист:

скрытый текст

1. Trio Sonata No. 1, for 2 violins & continuo in C major: 1. Largo
2. 2. Presto
3. 3. Poco Allegro
4. Trio Sonata No. 2, for 2 violins & continuo in G minor: 1. Andante
5. 2. Allegro
6. 3. Minuetto
7. Trio Sonata No. 3, for 2 violins & continuo in A major: 1. Andante
8. 2. Allegro
9. 3. Minuetto affettuoso
10. Trio Sonata No. 4, for 2 violins & continuo in B flat major: 1. Andante
11. 2. Allegro
12. 3. Allegro
13. Trio Sonata No. 5, for 2 violins & continuo in E flat major: 1. Andante
14. 2. Allegro
15. 3. Minuetto
16. Trio Sonata No. 6, for 2 violins & continuo in F major: 1. Andante
17. 2. Allegro
18. 3. Minuetto
19. Trio Sonata No. 7, for 2 violins & continuo in E major: 1. Moderato ed espressivo
20. 2. Allegro
Исполнители:

скрытый текст

Gluck: The Seven Trio Sonatas
Aura Musicale
Balazs Mate - artist director
Audio CD (September 30, 2003)

Лог создания рипа

Exact Audio Copy V1.0 beta 3 from 29. August 2011
EAC extraction logfile from 18. June 2014, 17:45
Aura Musicale / Gluck - The Seven Trio Sonatas
Used drive : PLDS BD-RE DH-8B2SH Adapter: 0 ID: 0
Read mode : Secure
Utilize accurate stream : Yes
Defeat audio cache : Yes
Make use of C2 pointers : No
Read offset correction : 6
Overread into Lead-In and Lead-Out : No
Fill up missing offset samples with silence : Yes
Delete leading and trailing silent blocks : No
Null samples used in CRC calculations : Yes
Used interface : Native Win32 interface for Win NT & 2000
Gap handling : Appended to previous track
Used output format : User Defined Encoder
Selected bitrate : 1024 kBit/s
Quality : High
Add ID3 tag : No
Command line compressor : C:\Program Files (x86)\FLAC\flac.exe
Additional command line options : -8 -V -T "ARTIST=%artist%" -T "TITLE=%title%" -T "ALBUM=%albumtitle%" -T "DATE=%year%" -T "TRACKNUMBER=%tracknr%" -T "GENRE=%genre%" -T "PERFORMER=%albuminterpret%" -T "COMPOSER=%composer%" %haslyrics%--tag-from-file=LYRICS="%lyricsfile%"%haslyrics% -T "ALBUMARTIST=%albumartist%" -T "DISCNUMBER=%cdnumber%" -T "TOTALDISCS=%totalcds%" -T "TOTALTRACKS=%numtracks%" -T "COMMENT=%comment%" %source% -o %dest%
TOC of the extracted CD
Track | Start | Length | Start sector | End sector
---------------------------------------------------------
1 | 0:00.00 | 5:47.13 | 0 | 26037
2 | 5:47.13 | 3:37.02 | 26038 | 42314
3 | 9:24.15 | 1:42.73 | 42315 | 50037
4 | 11:07.13 | 5:44.17 | 50038 | 75854
5 | 16:51.30 | 2:57.35 | 75855 | 89164
6 | 19:48.65 | 3:25.27 | 89165 | 104566
7 | 23:14.17 | 5:30.00 | 104567 | 129316
8 | 28:44.17 | 3:16.29 | 129317 | 144045
9 | 32:00.46 | 2:20.74 | 144046 | 154619
10 | 34:21.45 | 4:16.38 | 154620 | 173857
11 | 38:38.08 | 3:12.34 | 173858 | 188291
12 | 41:50.42 | 1:24.35 | 188292 | 194626
13 | 43:15.02 | 3:29.21 | 194627 | 210322
14 | 46:44.23 | 3:09.38 | 210323 | 224535
15 | 49:53.61 | 2:14.00 | 224536 | 234585
16 | 52:07.61 | 3:33.28 | 234586 | 250588
17 | 55:41.14 | 3:27.44 | 250589 | 266157
18 | 59:08.58 | 2:30.03 | 266158 | 277410
19 | 61:38.61 | 7:17.29 | 277411 | 310214
20 | 68:56.15 | 5:27.45 | 310215 | 334784
Track 1
Filename C:\EAC\01 Trio Sonata No. 1 in C major - Largo.wav
Pre-gap length 0:00:02.00
Peak level 82.6 %
Extraction speed 5.1 X
Track quality 100.0 %
Test CRC DEC41E6A
Copy CRC DEC41E6A
Track not present in AccurateRip database
Copy OK
Track 2
Filename C:\EAC\02 Trio Sonata No. 1 in C major - Presto.wav
Peak level 60.7 %
Extraction speed 5.3 X
Track quality 100.0 %
Test CRC 6E8716EA
Copy CRC 6E8716EA
Track not present in AccurateRip database
Copy OK
Track 3
Filename C:\EAC\03 Trio Sonata No. 1 in C major - Poco allegro.wav
Peak level 76.6 %
Extraction speed 4.8 X
Track quality 100.0 %
Test CRC E6ECF543
Copy CRC E6ECF543
Track not present in AccurateRip database
Copy OK
Track 4
Filename C:\EAC\04 Trio Sonata No. 2 in G minor - Andante.wav
Peak level 57.6 %
Extraction speed 6.3 X
Track quality 100.0 %
Test CRC 4E4D94F1
Copy CRC 4E4D94F1
Track not present in AccurateRip database
Copy OK
Track 5
Filename C:\EAC\05 Trio Sonata No. 2 in G minor - Allegro.wav
Peak level 72.7 %
Extraction speed 6.1 X
Track quality 100.0 %
Test CRC 451E93EE
Copy CRC 451E93EE
Track not present in AccurateRip database
Copy OK
Track 6
Filename C:\EAC\06 Trio Sonata No. 2 in G minor - Minuetto.wav
Peak level 65.0 %
Extraction speed 6.5 X
Track quality 100.0 %
Test CRC D805F760
Copy CRC D805F760
Track not present in AccurateRip database
Copy OK
Track 7
Filename C:\EAC\07 Trio Sonata No. 3 in A major - Andante.wav
Peak level 84.0 %
Extraction speed 6.2 X
Track quality 99.9 %
Test CRC 54A7223E
Copy CRC 54A7223E
Track not present in AccurateRip database
Copy OK
Track 8
Filename C:\EAC\08 Trio Sonata No. 3 in A major - Allegro.wav
Peak level 91.2 %
Extraction speed 7.1 X
Track quality 100.0 %
Test CRC 06048B9E
Copy CRC 06048B9E
Track not present in AccurateRip database
Copy OK
Track 9
Filename C:\EAC\09 Trio Sonata No. 3 in A major - Minuetto affettuoso.wav
Peak level 89.0 %
Extraction speed 6.8 X
Track quality 100.0 %
Test CRC 72BC9F41
Copy CRC 72BC9F41
Track not present in AccurateRip database
Copy OK
Track 10
Filename C:\EAC\10 Trio Sonata No. 4 in Bb major - Andante.wav
Peak level 55.4 %
Extraction speed 7.8 X
Track quality 100.0 %
Test CRC 91D14377
Copy CRC 91D14377
Track not present in AccurateRip database
Copy OK
Track 11
Filename C:\EAC\11 Trio Sonata No. 4 in Bb major - Allegro.wav
Peak level 77.1 %
Extraction speed 7.7 X
Track quality 100.0 %
Test CRC A730DAC5
Copy CRC A730DAC5
Track not present in AccurateRip database
Copy OK
Track 12
Filename C:\EAC\12 Trio Sonata No. 4 in Bb major - Allegro.wav
Peak level 72.4 %
Extraction speed 6.5 X
Track quality 100.0 %
Test CRC F6CE1AB5
Copy CRC F6CE1AB5
Track not present in AccurateRip database
Copy OK
Track 13
Filename C:\EAC\13 Trio Sonata No. 5 in Eb major - Andante.wav
Peak level 61.2 %
Extraction speed 8.0 X
Track quality 100.0 %
Test CRC 94AA3B99
Copy CRC 94AA3B99
Track not present in AccurateRip database
Copy OK
Track 14
Filename C:\EAC\14 Trio Sonata No. 5 in Eb major - Allegro.wav
Peak level 57.0 %
Extraction speed 8.0 X
Track quality 100.0 %
Test CRC 30534DB6
Copy CRC 30534DB6
Track not present in AccurateRip database
Copy OK
Track 15
Filename C:\EAC\15 Trio Sonata No. 5 in Eb major - Minuetto.wav
Peak level 52.5 %
Extraction speed 7.6 X
Track quality 100.0 %
Test CRC 644BC2F3
Copy CRC 644BC2F3
Track not present in AccurateRip database
Copy OK
Track 16
Filename C:\EAC\16 Trio Sonata No. 6 in F major - Andante.wav
Peak level 79.4 %
Extraction speed 8.5 X
Track quality 100.0 %
Test CRC 09CBFE1D
Copy CRC 09CBFE1D
Track not present in AccurateRip database
Copy OK
Track 17
Filename C:\EAC\17 Trio Sonata No. 6 in F major - Allegro.wav
Peak level 92.0 %
Extraction speed 8.6 X
Track quality 100.0 %
Test CRC B0F39011
Copy CRC B0F39011
Track not present in AccurateRip database
Copy OK
Track 18
Filename C:\EAC\18 Trio Sonata No. 6 in F major - Minuetto.wav
Peak level 50.1 %
Extraction speed 6.3 X
Track quality 99.9 %
Test CRC 9542C4AA
Copy CRC 9542C4AA
Track not present in AccurateRip database
Copy OK
Track 19
Filename C:\EAC\19 Trio Sonata No. 7 in F major - Moderato e espressivo.wav
Peak level 92.7 %
Extraction speed 9.9 X
Track quality 100.0 %
Test CRC 6D3AF045
Copy CRC 6D3AF045
Track not present in AccurateRip database
Copy OK
Track 20
Filename C:\EAC\20 Trio Sonata No. 7 in F major - Allegro.wav
Peak level 81.5 %
Extraction speed 9.9 X
Track quality 100.0 %
Test CRC 36A56F08
Copy CRC 36A56F08
Track not present in AccurateRip database
Copy OK
None of the tracks are present in the AccurateRip database
No errors occurred
End of status report
---- CUETools DB Plugin V2.1.3
[CTDB TOCID: zH.alhemIhy_mRq2dIqth7WQwos-] database access error: The remote name could not be resolved: 'db.cuetools.net'
==== Log checksum FDC12CBF614058BE70A86833DF765531170409697133486989D64CCBC5E7F397 ====

Содержание индексной карты (.CUE)

REM GENRE "Chamber Music"
REM DATE 2003
REM DISCID 19116F14
REM COMMENT "ExactAudioCopy v1.0b3"
PERFORMER "Aura Musicale"
TITLE "Gluck - The Seven Trio Sonatas"
FILE "01 Trio Sonata No. 1 in C major - Largo.flac" WAVE
TRACK 01 AUDIO
TITLE "Trio Sonata No. 1 in C major - Largo"
PERFORMER "Aura Musicale"
FLAGS DCP
INDEX 01 00:00:00
FILE "02 Trio Sonata No. 1 in C major - Presto.flac" WAVE
TRACK 02 AUDIO
TITLE "Trio Sonata No. 1 in C major - Presto"
PERFORMER "Aura Musicale"
FLAGS DCP
INDEX 01 00:00:00
FILE "03 Trio Sonata No. 1 in C major - Poco allegro.flac" WAVE
TRACK 03 AUDIO
TITLE "Trio Sonata No. 1 in C major - Poco allegro"
PERFORMER "Aura Musicale"
FLAGS DCP
INDEX 01 00:00:00
FILE "04 Trio Sonata No. 2 in G minor - Andante.flac" WAVE
TRACK 04 AUDIO
TITLE "Trio Sonata No. 2 in G minor - Andante"
PERFORMER "Aura Musicale"
FLAGS DCP
INDEX 01 00:00:00
FILE "05 Trio Sonata No. 2 in G minor - Allegro.flac" WAVE
TRACK 05 AUDIO
TITLE "Trio Sonata No. 2 in G minor - Allegro"
PERFORMER "Aura Musicale"
FLAGS DCP
INDEX 01 00:00:00
FILE "06 Trio Sonata No. 2 in G minor - Minuetto.flac" WAVE
TRACK 06 AUDIO
TITLE "Trio Sonata No. 2 in G minor - Minuetto"
PERFORMER "Aura Musicale"
FLAGS DCP
INDEX 01 00:00:00
FILE "07 Trio Sonata No. 3 in A major - Andante.flac" WAVE
TRACK 07 AUDIO
TITLE "Trio Sonata No. 3 in A major - Andante"
PERFORMER "Aura Musicale"
FLAGS DCP
INDEX 01 00:00:00
FILE "08 Trio Sonata No. 3 in A major - Allegro.flac" WAVE
TRACK 08 AUDIO
TITLE "Trio Sonata No. 3 in A major - Allegro"
PERFORMER "Aura Musicale"
FLAGS DCP
INDEX 01 00:00:00
FILE "09 Trio Sonata No. 3 in A major - Minuetto affettuoso.flac" WAVE
TRACK 09 AUDIO
TITLE "Trio Sonata No. 3 in A major - Minuetto affettuoso"
PERFORMER "Aura Musicale"
FLAGS DCP
INDEX 01 00:00:00
FILE "10 Trio Sonata No. 4 in Bb major - Andante.flac" WAVE
TRACK 10 AUDIO
TITLE "Trio Sonata No. 4 in Bb major - Andante"
PERFORMER "Aura Musicale"
FLAGS DCP
INDEX 01 00:00:00
FILE "11 Trio Sonata No. 4 in Bb major - Allegro.flac" WAVE
TRACK 11 AUDIO
TITLE "Trio Sonata No. 4 in Bb major - Allegro"
PERFORMER "Aura Musicale"
FLAGS DCP
INDEX 01 00:00:00
FILE "12 Trio Sonata No. 4 in Bb major - Allegro.flac" WAVE
TRACK 12 AUDIO
TITLE "Trio Sonata No. 4 in Bb major - Allegro"
PERFORMER "Aura Musicale"
FLAGS DCP
INDEX 01 00:00:00
FILE "13 Trio Sonata No. 5 in Eb major - Andante.flac" WAVE
TRACK 13 AUDIO
TITLE "Trio Sonata No. 5 in Eb major - Andante"
PERFORMER "Aura Musicale"
FLAGS DCP
INDEX 01 00:00:00
FILE "14 Trio Sonata No. 5 in Eb major - Allegro.flac" WAVE
TRACK 14 AUDIO
TITLE "Trio Sonata No. 5 in Eb major - Allegro"
PERFORMER "Aura Musicale"
FLAGS DCP
INDEX 01 00:00:00
FILE "15 Trio Sonata No. 5 in Eb major - Minuetto.flac" WAVE
TRACK 15 AUDIO
TITLE "Trio Sonata No. 5 in Eb major - Minuetto"
PERFORMER "Aura Musicale"
FLAGS DCP
INDEX 01 00:00:00
FILE "16 Trio Sonata No. 6 in F major - Andante.flac" WAVE
TRACK 16 AUDIO
TITLE "Trio Sonata No. 6 in F major - Andante"
PERFORMER "Aura Musicale"
FLAGS DCP
INDEX 01 00:00:00
FILE "17 Trio Sonata No. 6 in F major - Allegro.flac" WAVE
TRACK 17 AUDIO
TITLE "Trio Sonata No. 6 in F major - Allegro"
PERFORMER "Aura Musicale"
FLAGS DCP
INDEX 01 00:00:00
FILE "18 Trio Sonata No. 6 in F major - Minuetto.flac" WAVE
TRACK 18 AUDIO
TITLE "Trio Sonata No. 6 in F major - Minuetto"
PERFORMER "Aura Musicale"
FLAGS DCP
INDEX 01 00:00:00
FILE "19 Trio Sonata No. 7 in F major - Moderato e espressivo.flac" WAVE
TRACK 19 AUDIO
TITLE "Trio Sonata No. 7 in F major - Moderato e espressivo"
PERFORMER "Aura Musicale"
FLAGS DCP
INDEX 01 00:00:00
FILE "20 Trio Sonata No. 7 in F major - Allegro.flac" WAVE
TRACK 20 AUDIO
TITLE "Trio Sonata No. 7 in F major - Allegro"
PERFORMER "Aura Musicale"
FLAGS DCP
INDEX 01 00:00:00



Показать сообщения:    

Текущее время: 04-Дек 21:25

Часовой пояс: UTC + 3


Вы не можете начинать темы
Вы не можете отвечать на сообщения
Вы не можете редактировать свои сообщения
Вы не можете удалять свои сообщения
Вы не можете голосовать в опросах
Вы не можете прикреплять файлы к сообщениям
Вы не можете скачивать файлы