(Classical, recorder, xiao, dizi) Dialogue: East Meets West - Chen Yue, Michala Petri - 2009, FLAC (image+.cue) lossless


 

[Цитировать]

Dialogue: East Meets West - Chen Yue, Michala Petri
Жанр: Classical
Год издания диска: 2009
Издатель (лейбл): Our Recordings
Номер по каталогу: 6.220600
Дата записи: 2008
Аудиокодек: FLAC
Тип рипа: image+.cue
Битрейт аудио: lossless
Продолжительность: 67:46
Источник: собственный рип
Наличие сканов в содержимом раздачи: да
Треклист:
1] Yao Hu (b.1983): Rong (Fusion)
[2] Mette Nielsen (b.1985): Stream
[3] Rui Li (b.1980): Peng Zhuang (Sparkling-Collision)
[4] Pernille Louise Sejlund (b.1979): Butterfly-Rain
[5] Gang Chen (b.1969): The Greeting from Afar
[6] Anders Monrad (b.1981): East/West-project 16
[7] Siqin Chaoketu (b.1969): Yan Gui (The wild goose comes back home)
[8] Kasper Rofelt (b.1982): Circonflexe
[9] Ruomei Chen (b.1979): Jue (Very rare and fine jade)
[10] Benjamin de Murashkin (b.1981): Cascades
Исполнители:
Chen Yue Xiao & Dizi
Michala Petri Recorders

Лог создания рипа

Exact Audio Copy V1.0 beta 3 from 29. August 2011
EAC extraction logfile from 3. April 2014, 17:22
Michala Petri, Chen Yue / Dialogue - East Meets West
Used drive : HL-DT-STDVDRRW GWA-4164B Adapter: 5 ID: 0
Read mode : Secure
Utilize accurate stream : Yes
Defeat audio cache : Yes
Make use of C2 pointers : No
Read offset correction : 102
Overread into Lead-In and Lead-Out : No
Fill up missing offset samples with silence : Yes
Delete leading and trailing silent blocks : No
Null samples used in CRC calculations : Yes
Used interface : Native Win32 interface for Win NT & 2000
Used output format : User Defined Encoder
Selected bitrate : 896 kBit/s
Quality : High
Add ID3 tag : No
Command line compressor : C:\Program Files\Exact Audio Copy\FLAC\FLAC.EXE
Additional command line options : -V -8 %source%
TOC of the extracted CD
Track | Start | Length | Start sector | End sector
---------------------------------------------------------
1 | 0:00.00 | 8:03.39 | 0 | 36263
2 | 8:03.39 | 5:42.69 | 36264 | 61982
3 | 13:46.33 | 6:29.35 | 61983 | 91192
4 | 20:15.68 | 8:20.38 | 91193 | 128730
5 | 28:36.31 | 6:28.26 | 128731 | 157856
6 | 35:04.57 | 6:29.16 | 157857 | 187047
7 | 41:33.73 | 7:32.46 | 187048 | 220993
8 | 49:06.44 | 5:23.72 | 220994 | 245290
9 | 54:30.41 | 6:22.37 | 245291 | 273977
10 | 60:53.03 | 6:46.09 | 273978 | 304436
Range status and errors
Selected range
Filename D:\temp\Music\Dialogue - East Meets West - Chen Yue, Michala Petri\Dialogue - East Meets West.wav
Peak level 88.5 %
Extraction speed 3.0 X
Range quality 100.0 %
Test CRC 4A61B41A
Copy CRC 4A61B41A
Copy OK
No errors occurred
AccurateRip summary
Track 1 accurately ripped (confidence 3) [D015BF66] (AR v1)
Track 2 accurately ripped (confidence 3) [C88397E0] (AR v1)
Track 3 accurately ripped (confidence 3) [1C81EC3E] (AR v1)
Track 4 accurately ripped (confidence 3) [7F97AA98] (AR v1)
Track 5 accurately ripped (confidence 3) [7F4919FB] (AR v1)
Track 6 accurately ripped (confidence 3) [B5C53E70] (AR v1)
Track 7 accurately ripped (confidence 3) [CAB7D4CD] (AR v1)
Track 8 accurately ripped (confidence 3) [6AD9A71B] (AR v1)
Track 9 accurately ripped (confidence 3) [E7F00C99] (AR v1)
Track 10 accurately ripped (confidence 3) [C173CD57] (AR v1)
All tracks accurately ripped
End of status report
==== Log checksum A1B34CBA53755FC304E83B05C47DFB5C0E435940CDE75BAA4E02D43D8AE9D1D4 ====



Показать сообщения:    

Текущее время: 03-Дек 05:27

Часовой пояс: UTC + 3


Вы не можете начинать темы
Вы не можете отвечать на сообщения
Вы не можете редактировать свои сообщения
Вы не можете удалять свои сообщения
Вы не можете голосовать в опросах
Вы не можете прикреплять файлы к сообщениям
Вы не можете скачивать файлы