(Classical/Violin) Прокофьев - Соната для скрипки Op. 115, для двух скрипок Op. 56; Шостакович - Соната Op. 134; Шнитке - Прелюдия памяти Шостаковича (Лидия Мордкович/Lydia Mordkovitch, Emma Young, Clifford Benson) - 1991, FLAC (image+.cue) lossless


 

[Цитировать]

Прокофьев - Соната для скрипки соло Op. 115, соната для двух скрипок Op. 56; Шостакович - Соната для скрипки и фортепиано Op. 134; Шнитке - Прелюдия памяти Шостаковича (Лидия Мордкович / Lydia Mordkovitch, Emma Young, Clifford Benson)
Жанр: Classical/Violin
Страна-производитель диска: EU
Год издания диска: 1991
Издатель (лейбл): Chandos
Номер по каталогу: CHAN 8988
Дата записи: 1990, 1991
Аудиокодек: FLAC
Тип рипа: image+.cue
Битрейт аудио: lossless
Продолжительность: 62:03
Источник: собственный рип
Наличие сканов в содержимом раздачи: да
Треклист:
Сергей Прокофьев / Sergey Prokofiev
Sonata in D major for solo violin Op.115 12:00
1 I Moderato 04:28
2 II Tema: Andante dolce 03:37
Variations i), ii) Scherzando, iii), iv), v) Andante
3 III Con brio - Allegro precipitato - Tempo 1 - Allegro precipipitato 03:49
Sonata in C major for two violins Op.56 15:54
4 I Andante cantabile 03:18
5 II Allegro 03:07
6 III Commodo (quasi Allegretto) 04:13
7 IV Allegro con brio - Più presto 05:04
Альфред Шнитке / Alfred Schnittke
8 Praeludium in memorium D.Shostakovich for two violins 4:15
Дмитрий Шостакович / Dmitri Shostakovich
Sonata for violin and piano Op.134 29:33
9 I Andante 09:24
10 II Allegro 06:18
11 III Largo - Andante - Largo 13:45
Исполнители:
Лидия Мордкович / Lydia Mordkovitch violin
Emma Young violin
Clifford Benson piano

Лог создания рипа

Exact Audio Copy V1.0 beta 3 from 29. August 2011
Отчёт EAC об извлечении, выполненном 9. июня 2014, 22:24
Lydia Mordkovitch, Emma Young, Clifford Benson / Prokofiev, Shostakovich, Schnittke - Violin Sonatas
Дисковод: HL-DT-STDVDRAM GU71N Adapter: 2 ID: 0
Режим чтения : Достоверность
Использование точного потока : Да
Отключение кэша аудио : Да
Использование указателей C2 : Нет
Коррекция смещения при чтении : 6
Способность читать области Lead-in и Lead-out : Нет
Заполнение пропущенных сэмплов тишиной : Да
Удаление блоков с тишиной в начале и конце : Нет
При вычислениях CRC использовались нулевые сэмплы : Да
Интерфейс : Встроенный Win32-интерфейс для Win NT/2000
Выходной формат : Пользовательский кодировщик
Выбранный битрейт : 1024 kBit/s
Качество : Высокий
Добавление ID3-тега : Нет
Утилита сжатия : C:\Program Files (x86)\Exact Audio Copy\Flac\flac.exe
Дополнительные параметры : -8 -V -T "ALBUMARTIST=%albumartist%" -T "ALBUM=%albumtitle%" -T "DATE=%year%" -T "TRACKTOTAL=%numtracks%" -T "GENRE=%genre%" -T "COMMENT=%comment%" -T "PERFORMER=%albuminterpret%" -T "COMPOSER=%composer%" %source% -o %dest%
TOC извлечённого CD
Трек | Старт | Длительность | Начальный сектор | Конечный сектор
---------------------------------------------------------------------
1 | 0:00.00 | 4:32.00 | 0 | 20399
2 | 4:32.00 | 3:39.00 | 20400 | 36824
3 | 8:11.00 | 3:55.00 | 36825 | 54449
4 | 12:06.00 | 3:23.00 | 54450 | 69674
5 | 15:29.00 | 3:12.00 | 69675 | 84074
6 | 18:41.00 | 4:15.00 | 84075 | 103199
7 | 22:56.00 | 5:12.00 | 103200 | 126599
8 | 28:08.00 | 4:18.00 | 126600 | 145949
9 | 32:26.00 | 9:27.67 | 145950 | 188541
10 | 41:53.67 | 6:20.08 | 188542 | 217049
11 | 48:14.00 | 13:46.25 | 217050 | 279024
Характеристики диапазона извлечения и сообщения об ошибках
Выбранный диапазон
Имя файла H:\Rips\Prokofiev, Shostakovich, Schnittke - Violin Sonatas - Lydia Mordkovitch CHAN 8988\Prokofiev, Shostakovich, Schnittke - Violin Sonatas.wav
Пиковый уровень 79.9 %
Скорость извлечения 2.0 X
Качество диапазона 100.0 %
CRC теста ABE88E28
CRC копии ABE88E28
Копирование... OK
Ошибок не произошло
AccurateRip: сводка
Трек 1 точность не определена (достоверность 4) [3414E1FB], AccurateRip вернул [B35265DB] (AR v2)
Трек 2 точность не определена (достоверность 4) [25CCCD9E], AccurateRip вернул [2E10664B] (AR v2)
Трек 3 точность не определена (достоверность 4) [8F76E6D1], AccurateRip вернул [6D556301] (AR v2)
Трек 4 точность не определена (достоверность 4) [B8435390], AccurateRip вернул [F110FA84] (AR v2)
Трек 5 точность не определена (достоверность 4) [F56D0122], AccurateRip вернул [A398AD13] (AR v2)
Трек 6 точность не определена (достоверность 4) [DB14756E], AccurateRip вернул [E7ECB9F7] (AR v2)
Трек 7 точность не определена (достоверность 4) [AD7DAE3E], AccurateRip вернул [7DE575BA] (AR v2)
Трек 8 точность не определена (достоверность 4) [AFB19B72], AccurateRip вернул [CBF7A16B] (AR v2)
Трек 9 точность не определена (достоверность 4) [E5A3DA27], AccurateRip вернул [36C6E5B8] (AR v2)
Трек 10 точность не определена (достоверность 4) [AE1F2413], AccurateRip вернул [EFDBB63C] (AR v2)
Трек 11 точность не определена (достоверность 4) [B9266376], AccurateRip вернул [4F0F263C] (AR v2)
Ни один трек не прошёл проверки на точность
В вашей базе может быть иной вариант штамповки диска
Конец отчёта
==== Контрольная сумма отчёта 24682D0399ABBB287E7656DA1A9F2200A2FC824258CC9F48B959B9EA8FB27E17 ====

Содержание индексной карты (.CUE)

REM GENRE "Chamber Music"
REM DATE 1991
REM DISCID A30E880B
REM COMMENT "ExactAudioCopy v1.0b3"
PERFORMER "Lydia Mordkovitch, Emma Young, Clifford Benson"
TITLE "Prokofiev, Shostakovich, Schnittke - Violin Sonatas"
FILE "Prokofiev, Shostakovich, Schnittke - Violin Sonatas.flac" WAVE
TRACK 01 AUDIO
TITLE "Sonata in D for Solo Violin Op.115 -I- Moderato"
PERFORMER "Sergey Prokofiev"
INDEX 01 00:00:00
TRACK 02 AUDIO
TITLE "Sonata in D for Solo Violin Op.115 -II- Tema Andante dolce"
PERFORMER "Sergey Prokofiev"
INDEX 00 04:28:26
INDEX 01 04:32:00
TRACK 03 AUDIO
TITLE "Sonata in D for Solo Violin Op.115 -III- Con brio - Allegro precipitato"
PERFORMER "Sergey Prokofiev"
INDEX 00 08:09:25
INDEX 01 08:11:00
TRACK 04 AUDIO
TITLE "Sonata in C for Two Violins Op.56 -I- Andante cantabile"
PERFORMER "Sergey Prokofiev"
INDEX 00 12:00:26
INDEX 01 12:06:00
TRACK 05 AUDIO
TITLE "Sonata in C for Two Violins Op.56 -II- Allegro"
PERFORMER "Sergey Prokofiev"
INDEX 00 15:25:09
INDEX 01 15:29:00
TRACK 06 AUDIO
TITLE "Sonata in C for Two Violins Op.56 -III- Commodo"
PERFORMER "Sergey Prokofiev"
INDEX 00 18:37:00
INDEX 01 18:41:00
TRACK 07 AUDIO
TITLE "Sonata in C for Two Violins Op.56 -IV- Allegro con brio"
PERFORMER "Sergey Prokofiev"
INDEX 00 22:53:26
INDEX 01 22:56:00
TRACK 08 AUDIO
TITLE "Alfred Schnitke / Praeludium in memoriam D. Shostakovich"
PERFORMER "Alfred Schnittke"
INDEX 00 28:00:27
INDEX 01 28:08:00
TRACK 09 AUDIO
TITLE "Violin Sonata Op.134 -I- Andante"
PERFORMER "Dmitri Shostakovich"
INDEX 00 32:18:30
INDEX 01 32:26:00
TRACK 10 AUDIO
TITLE "Violin Sonata Op.134 -II- Allegretto"
PERFORMER "Dmitri Shostakovich"
INDEX 00 41:50:30
INDEX 01 41:53:67
TRACK 11 AUDIO
TITLE "Violin Sonata Op.134 -III- Largo - Andante - Largo"
PERFORMER "Dmitri Shostakovich"
INDEX 00 48:11:30
INDEX 01 48:14:00



Показать сообщения:    

Текущее время: 11-Дек 13:00

Часовой пояс: UTC + 3


Вы не можете начинать темы
Вы не можете отвечать на сообщения
Вы не можете редактировать свои сообщения
Вы не можете удалять свои сообщения
Вы не можете голосовать в опросах
Вы не можете прикреплять файлы к сообщениям
Вы не можете скачивать файлы