(Classical) Шостакович - Из еврейской народной поэзии Op. 79a; Прокофьев - Увертюра на еврейские темы Op. 34; Bloch - Prayer, Nigun et al. (Pelle, Hart, Nolan, Туровский / Turovsky, I Musici de Montreal) - 1990, FLAC (image+.cue) lossless


 

[Цитировать]

Shostakovich, Bloch, Prokofiev - Music on Hebrew Themes - I Musici de Montréal, Yuli Turovsky
Жанр: Classical
Страна-производитель диска: Австрия
Год издания диска: 1990
Издатель (лейбл): Chandos
Номер по каталогу: CHAN 8800
Дата записи: 1989
Аудиокодек: FLAC
Тип рипа: image+.cue
Битрейт аудио: lossless
Продолжительность: 58:36
Источник: собственный рип
Наличие сканов в содержимом раздачи: да
Треклист:
Дмитрий Шостакович / Dmitri Shostakovich
Из еврейской народной поэзии / Song Cycle from Jewish Folk Poetry Op. 79a 24:50
1 The Lament for the Dead Child 02:34
(Плач об умершем младенце)
2 The Thoughtful Mother and Aunt 01:53
(Заботливые мама и тетя)
3 Lullaby (Колыбельная) 02:54
4 Before a Long Parting (Перед долгой разлукой) 02:39
5 A Warning (Предостережение) 01:24
6 The Abandoned Father (Брошенный отец) 01:55
7 The Song of Misery (Песня о нужде) 01:23
8 Winter (Зима) 03:13
9 A Good Life (Хорошая жизнь) 01:40
10 The Young Girl's Song (Песня девушки) 03:13
11 Happiness (Счастье) 01:37
Ernest Bloch
12 Prayer 4:41
13 Nigun 6:58
14 Jewish Song 2:39
15 Supplication 3:05
16 Méditation Hebraique 6:15
Сергей Прокофьев / Sergey Prokofiev
17 Увертюра на еврейские темы / Jewish Overture Op. 34 9:29
Исполнители:
Nadia Pelle soprano
Mary Ann Hart mezzo-soprano
Rodney Nolan tenor
Юлий Туровский / Yuli Turovsky cello
I Musici de Montréal
Юлий Туровский / Yuli Turovsky

Лог создания рипа

Exact Audio Copy V1.0 beta 3 from 29. August 2011
Отчёт EAC об извлечении, выполненном 8. июня 2014, 23:13
I Musici de Montreal, Yuli Turovsky / Prokofiev, Shostakovich, Bloch: Music on Hebrew Themes
Дисковод: HL-DT-STDVDRAM GU71N Adapter: 2 ID: 0
Режим чтения : Достоверность
Использование точного потока : Да
Отключение кэша аудио : Да
Использование указателей C2 : Нет
Коррекция смещения при чтении : 6
Способность читать области Lead-in и Lead-out : Нет
Заполнение пропущенных сэмплов тишиной : Да
Удаление блоков с тишиной в начале и конце : Нет
При вычислениях CRC использовались нулевые сэмплы : Да
Интерфейс : Встроенный Win32-интерфейс для Win NT/2000
Выходной формат : Пользовательский кодировщик
Выбранный битрейт : 1024 kBit/s
Качество : Высокий
Добавление ID3-тега : Нет
Утилита сжатия : C:\Program Files (x86)\Exact Audio Copy\Flac\flac.exe
Дополнительные параметры : -8 -V -T "ALBUMARTIST=%albumartist%" -T "ALBUM=%albumtitle%" -T "DATE=%year%" -T "TRACKTOTAL=%numtracks%" -T "GENRE=%genre%" -T "COMMENT=%comment%" -T "PERFORMER=%albuminterpret%" -T "COMPOSER=%composer%" %source% -o %dest%
TOC извлечённого CD
Трек | Старт | Длительность | Начальный сектор | Конечный сектор
---------------------------------------------------------------------
1 | 0:00.32 | 2:36.00 | 32 | 11731
2 | 2:36.32 | 1:56.20 | 11732 | 20451
3 | 4:32.52 | 2:57.33 | 20452 | 33759
4 | 7:30.10 | 2:42.35 | 33760 | 45944
5 | 10:12.45 | 1:25.35 | 45945 | 52354
6 | 11:38.05 | 1:57.37 | 52355 | 61166
7 | 13:35.42 | 1:26.28 | 61167 | 67644
8 | 15:01.70 | 3:15.02 | 67645 | 82271
9 | 18:16.72 | 1:41.48 | 82272 | 89894
10 | 19:58.45 | 3:14.50 | 89895 | 104494
11 | 23:13.20 | 1:45.12 | 104495 | 112381
12 | 24:58.32 | 4:47.00 | 112382 | 133906
13 | 29:45.32 | 7:05.38 | 133907 | 165819
14 | 36:50.70 | 2:44.42 | 165820 | 178161
15 | 39:35.37 | 3:10.23 | 178162 | 192434
16 | 42:45.60 | 6:21.12 | 192435 | 221021
17 | 49:06.72 | 9:29.35 | 221022 | 263731
Характеристики диапазона извлечения и сообщения об ошибках
Выбранный диапазон
Имя файла H:\Rips\Prokofiev, Shostakovich, Bloch - Music on Hebrew Themes (Yuli Turovsky) CHAN 8800\Prokofiev, Shostakovich, Bloch - Music on Hebrew Themes.wav
Пиковый уровень 93.3 %
Скорость извлечения 2.0 X
Качество диапазона 100.0 %
CRC теста D7A107A0
CRC копии D7A107A0
Копирование... OK
Ошибок не произошло
AccurateRip: сводка
Трек 1 точность не определена (достоверность 1) [1E1E1D20], AccurateRip вернул [240C858E] (AR v2)
Трек 2 точность не определена (достоверность 1) [CFD9ABEB], AccurateRip вернул [59020C7D] (AR v2)
Трек 3 точность не определена (достоверность 1) [2548A2B7], AccurateRip вернул [BF283E60] (AR v2)
Трек 4 точность не определена (достоверность 1) [D90FD2C5], AccurateRip вернул [7ED48CFB] (AR v2)
Трек 5 точность не определена (достоверность 1) [0A767C4D], AccurateRip вернул [21827A21] (AR v2)
Трек 6 точность не определена (достоверность 1) [ABDC7B5D], AccurateRip вернул [B5C66F84] (AR v2)
Трек 7 точность не определена (достоверность 1) [15EB2EDF], AccurateRip вернул [F5C1A4B8] (AR v2)
Трек 8 точность не определена (достоверность 1) [B4AFE80A], AccurateRip вернул [4A52B8A1] (AR v2)
Трек 9 точность не определена (достоверность 1) [CACC08E7], AccurateRip вернул [83A326DD] (AR v2)
Трек 10 точность не определена (достоверность 1) [6A37F343], AccurateRip вернул [6FA6A772] (AR v2)
Трек 11 точность не определена (достоверность 1) [C83450F0], AccurateRip вернул [1E507515] (AR v2)
Трек 12 точность не определена (достоверность 1) [81B69BD5], AccurateRip вернул [CA59D549] (AR v2)
Трек 13 точность не определена (достоверность 1) [C1EAE07C], AccurateRip вернул [B81FFB1D] (AR v2)
Трек 14 точность не определена (достоверность 1) [418495DE], AccurateRip вернул [FE253C7C] (AR v2)
Трек 15 точность не определена (достоверность 1) [272AF909], AccurateRip вернул [A878F1E4] (AR v2)
Трек 16 точность не определена (достоверность 1) [7C4A386E], AccurateRip вернул [8735F915] (AR v2)
Трек 17 точность не определена (достоверность 1) [853B2A83], AccurateRip вернул [0DB3AA35] (AR v2)
Ни один трек не прошёл проверки на точность
В вашей базе может быть иной вариант штамповки диска
Конец отчёта
==== Контрольная сумма отчёта 6E07FC24F9AC631458C68A33833EDA48E3464BF7B3CDF73AF69046C8859C42A1 ====

Содержание индексной карты (.CUE)

REM GENRE Classical
REM DATE 1990
REM DISCID DF0DBC11
REM COMMENT "ExactAudioCopy v1.0b3"
PERFORMER "I Musici de Montreal, Yuli Turovsky"
TITLE "Prokofiev, Shostakovich, Bloch: Music on Hebrew Themes"
FILE "Prokofiev, Shostakovich, Bloch - Music on Hebrew Themes.flac" WAVE
TRACK 01 AUDIO
TITLE "Dmitri Shostakovich (1906-75) From Jewish Folk Poetry - 1. The Lament for the Dead Child"
PERFORMER "I Musici de Montreal, Yuli Turovsky"
INDEX 00 00:00:00
INDEX 01 00:00:32
TRACK 02 AUDIO
TITLE "2. The Thoughtful Mother and Aunt"
PERFORMER "I Musici de Montreal, Yuli Turovsky"
INDEX 00 02:34:45
INDEX 01 02:36:32
TRACK 03 AUDIO
TITLE "3. Lullaby"
PERFORMER "I Musici de Montreal, Yuli Turovsky"
INDEX 00 04:30:57
INDEX 01 04:32:52
TRACK 04 AUDIO
TITLE "4. Before a Long Parting"
PERFORMER "I Musici de Montreal, Yuli Turovsky"
INDEX 00 07:27:32
INDEX 01 07:30:10
TRACK 05 AUDIO
TITLE "5. A Warning"
PERFORMER "I Musici de Montreal, Yuli Turovsky"
INDEX 00 10:11:55
INDEX 01 10:12:45
TRACK 06 AUDIO
TITLE "6. The Abandoned Father"
PERFORMER "I Musici de Montreal, Yuli Turovsky"
INDEX 00 11:37:15
INDEX 01 11:38:05
TRACK 07 AUDIO
TITLE "7. The Song of Misery"
PERFORMER "I Musici de Montreal, Yuli Turovsky"
INDEX 00 13:34:07
INDEX 01 13:35:42
TRACK 08 AUDIO
TITLE "8. Winter"
PERFORMER "I Musici de Montreal, Yuli Turovsky"
INDEX 00 14:58:32
INDEX 01 15:01:70
TRACK 09 AUDIO
TITLE "9. A Good Life"
PERFORMER "I Musici de Montreal, Yuli Turovsky"
INDEX 00 18:14:57
INDEX 01 18:16:72
TRACK 10 AUDIO
TITLE "10. The Young Girl's Song"
PERFORMER "I Musici de Montreal, Yuli Turovsky"
INDEX 00 19:57:15
INDEX 01 19:58:45
TRACK 11 AUDIO
TITLE "11. Happiness"
PERFORMER "I Musici de Montreal, Yuli Turovsky"
INDEX 00 23:11:37
INDEX 01 23:13:20
TRACK 12 AUDIO
TITLE "Ernest Bloch (1880-1959) 1. Prayer"
PERFORMER "I Musici de Montreal, Yuli Turovsky"
INDEX 00 24:51:42
INDEX 01 24:58:32
TRACK 13 AUDIO
TITLE "2. Nigun"
PERFORMER "I Musici de Montreal, Yuli Turovsky"
INDEX 00 29:41:40
INDEX 01 29:45:32
TRACK 14 AUDIO
TITLE "3. Jewish Song"
PERFORMER "I Musici de Montreal, Yuli Turovsky"
INDEX 00 36:44:37
INDEX 01 36:50:70
TRACK 15 AUDIO
TITLE "4. Suplication"
PERFORMER "I Musici de Montreal, Yuli Turovsky"
INDEX 00 39:30:20
INDEX 01 39:35:37
TRACK 16 AUDIO
TITLE "5. Meditation hebraique"
PERFORMER "I Musici de Montreal, Yuli Turovsky"
INDEX 00 42:40:30
INDEX 01 42:45:60
TRACK 17 AUDIO
TITLE "Sergey Prokofiev (1891-1953) Jewish Overture Op. 34"
PERFORMER "I Musici de Montreal, Yuli Turovsky"
INDEX 00 49:00:32
INDEX 01 49:06:72



Показать сообщения:    

Текущее время: 10-Дек 02:13

Часовой пояс: UTC + 3


Вы не можете начинать темы
Вы не можете отвечать на сообщения
Вы не можете редактировать свои сообщения
Вы не можете удалять свои сообщения
Вы не можете голосовать в опросах
Вы не можете прикреплять файлы к сообщениям
Вы не можете скачивать файлы