(Classical/Chamber) Прокофьев - Струнный квартет № 2 Op. 92; Шостакович - Фортепианное трио № 2 Op. 67; Галынин - Фортепианное трио (Квартет им. Бородина, Дубинский, Александров, Шебалин, Берлинский, Едлина) - 2006, FLAC (image+.cue) lossless


 

[Цитировать]

Прокофьев - Струнный квартет № 2 Op. 92; Шостакович - Фортепианное трио № 2 Op. 67; Галынин - Фортепианное трио (Квартет им. Бородина, Дубинский, Александров, Шебалин, Берлинский, Едлина)
Жанр: Classical/Chamber
Страна-производитель диска: Россия
Год издания диска: 2006
Издатель (лейбл): Мелодия
Номер по каталогу: MEL CD 10 00980
Дата записи: 1958, 1972, 1971
Аудиокодек: FLAC
Тип рипа: image+.cue
Битрейт аудио: lossless
Продолжительность: 71:13
Источник: собственный рип
Наличие сканов в содержимом раздачи: да
Треклист:
Сергей Прокофьев / Sergey Prokofiev (1891-1953)
String Quartet No. 2 in F major, Op. 92 (1941)
01. Allegro Sostenuto [0:06:53.42]
02. Adagio [0:07:20.01]
03. Allegro [0:08:14.50]
Запись: 1958
Дмитрий Шостакович / Dmitri Shostakovich (1906-1975)
Piano Trio No. 2 in E minor, Op. 67 (1944)
04. Andante [0:08:29.26]
05. Allegro con brio [0:03:21.43]
06. Largo [0:05:50.18]
07. Allegretto [0:11:41.04]
Запись: 1972
Герман Галынин / German Galynin (1922-1966)
Piano Trio in D minor (1948)
08. Prelude. Moderato [0:04:38.42]
09. Toccata. Allegro [0:02:36.32]
10. Passacaglia. Andante sostenuto [0:07:07.09]
11. Fugue. Allegro [0:04:59.71]
Запись: 1971
Исполнители:
Любовь Едлина, фортепиано
Ростислав Дубинский, скрипка
Валентин Берлинский, виолончель
(4-11)
Государственный квартет им. Бородина:
Ростислав Дубинский, первая скрипка
Ярослав Александров, вторая скрипка
Дмитрий Шебалин, альт
Валентин Берлинский, виолончель
(1-3)

Лог создания рипа

Exact Audio Copy V1.0 beta 3 from 29. August 2011
Отчёт EAC об извлечении, выполненном 9. июня 2014, 18:35
Borodin Quartet, Lubov Yedlina / Russian Chamber Music of XX c.
Дисковод: HL-DT-STDVDRAM GU71N Adapter: 2 ID: 0
Режим чтения : Достоверность
Использование точного потока : Да
Отключение кэша аудио : Да
Использование указателей C2 : Нет
Коррекция смещения при чтении : 6
Способность читать области Lead-in и Lead-out : Нет
Заполнение пропущенных сэмплов тишиной : Да
Удаление блоков с тишиной в начале и конце : Нет
При вычислениях CRC использовались нулевые сэмплы : Да
Интерфейс : Встроенный Win32-интерфейс для Win NT/2000
Выходной формат : Пользовательский кодировщик
Выбранный битрейт : 1024 kBit/s
Качество : Высокий
Добавление ID3-тега : Нет
Утилита сжатия : C:\Program Files (x86)\Exact Audio Copy\Flac\flac.exe
Дополнительные параметры : -8 -V -T "ALBUMARTIST=%albumartist%" -T "ALBUM=%albumtitle%" -T "DATE=%year%" -T "TRACKTOTAL=%numtracks%" -T "GENRE=%genre%" -T "COMMENT=%comment%" -T "PERFORMER=%albuminterpret%" -T "COMPOSER=%composer%" %source% -o %dest%
TOC извлечённого CD
Трек | Старт | Длительность | Начальный сектор | Конечный сектор
---------------------------------------------------------------------
1 | 0:00.00 | 6:53.42 | 0 | 31016
2 | 6:53.42 | 7:20.01 | 31017 | 64017
3 | 14:13.43 | 8:14.50 | 64018 | 101117
4 | 22:28.18 | 8:29.26 | 101118 | 139318
5 | 30:57.44 | 3:21.43 | 139319 | 154436
6 | 34:19.12 | 5:50.18 | 154437 | 180704
7 | 40:09.30 | 11:41.04 | 180705 | 233283
8 | 51:50.34 | 4:38.42 | 233284 | 254175
9 | 56:29.01 | 2:36.32 | 254176 | 265907
10 | 59:05.33 | 7:07.09 | 265908 | 297941
11 | 66:12.42 | 4:59.71 | 297942 | 320437
Характеристики диапазона извлечения и сообщения об ошибках
Выбранный диапазон
Имя файла H:\Rips\Prokofiev, Shostakovich, Galynin - Russian Chamber Music of XX c. - Borodin Quartet, Lubov Yedlina\Russian Chamber Music of XX c..wav
Пиковый уровень 93.8 %
Скорость извлечения 2.1 X
Качество диапазона 99.9 %
CRC теста 9504C56A
CRC копии 9504C56A
Копирование... OK
Ошибок не произошло
AccurateRip: сводка
Трек 1 отсутствует в базе данных
Трек 2 отсутствует в базе данных
Трек 3 отсутствует в базе данных
Трек 4 отсутствует в базе данных
Трек 5 отсутствует в базе данных
Трек 6 отсутствует в базе данных
Трек 7 отсутствует в базе данных
Трек 8 отсутствует в базе данных
Трек 9 отсутствует в базе данных
Трек 10 отсутствует в базе данных
Трек 11 отсутствует в базе данных
Ни одного трека нет в базе AccurateRip
Конец отчёта
==== Контрольная сумма отчёта 9CBFDF60A73DD1034F444198F6F94DB16E0FEA02772B9CEDD921F888A4FA4EDB ====

Содержание индексной карты (.CUE)

REM GENRE Classical
REM DATE 2006
REM DISCID 9010B00B
REM COMMENT "ExactAudioCopy v1.0b3"
PERFORMER "Borodin Quartet, Lubov Yedlina"
TITLE "Russian Chamber Music of XX c."
FILE "Russian Chamber Music of XX c..flac" WAVE
TRACK 01 AUDIO
TITLE "String Quartet No. 2 in F major, Op. 92 (1941) Allegro Sostenuto"
PERFORMER "Sergei Prokofiev"
FLAGS DCP
INDEX 01 00:00:00
TRACK 02 AUDIO
TITLE "String Quartet No. 2, Op. 92. Adagio"
PERFORMER "Sergei Prokofiev"
FLAGS DCP
INDEX 00 06:51:42
INDEX 01 06:53:42
TRACK 03 AUDIO
TITLE "String Quartet No. 2, Op. 92. Allegro"
PERFORMER "Sergei Prokofiev"
FLAGS DCP
INDEX 00 14:10:43
INDEX 01 14:13:43
TRACK 04 AUDIO
TITLE "Piano Trio No. 2 in E minor, Op. 67 (1944) Andante"
PERFORMER "Dmitri Shostakovich"
FLAGS DCP
INDEX 00 22:23:48
INDEX 01 22:28:18
TRACK 05 AUDIO
TITLE "Piano Trio No. 2, Op. 67. Allegro con brio"
PERFORMER "Dmitri Shostakovich"
FLAGS DCP
INDEX 00 30:54:74
INDEX 01 30:57:44
TRACK 06 AUDIO
TITLE "Piano Trio No. 2, Op. 67. Largo"
PERFORMER "Dmitri Shostakovich"
FLAGS DCP
INDEX 00 34:15:42
INDEX 01 34:19:12
TRACK 07 AUDIO
TITLE "Piano Trio No. 2, Op. 67. Allegretto"
PERFORMER "Dmitri Shostakovich"
FLAGS DCP
INDEX 01 40:09:30
TRACK 08 AUDIO
TITLE "Piano Trio in D minor (1948) Prelude. Moderato"
PERFORMER "German Galynin"
FLAGS DCP
INDEX 00 51:49:34
INDEX 01 51:50:34
TRACK 09 AUDIO
TITLE "Piano Trio in D minor. Toccata. Allegro"
PERFORMER "German Galynin"
FLAGS DCP
INDEX 00 56:26:31
INDEX 01 56:29:01
TRACK 10 AUDIO
TITLE "Piano Trio in D minor. Passacaglia. Andante sostenuto"
PERFORMER "German Galynin"
FLAGS DCP
INDEX 00 59:01:63
INDEX 01 59:05:33
TRACK 11 AUDIO
TITLE "Piano Trio in D minor. Fugue. Allegro"
PERFORMER "German Galynin"
FLAGS DCP
INDEX 00 66:10:72
INDEX 01 66:12:42



Показать сообщения:    

Текущее время: 18-Янв 02:32

Часовой пояс: UTC + 3


Вы не можете начинать темы
Вы не можете отвечать на сообщения
Вы не можете редактировать свои сообщения
Вы не можете удалять свои сообщения
Вы не можете голосовать в опросах
Вы не можете прикреплять файлы к сообщениям
Вы не можете скачивать файлы