(Classical) Georg Christoph Wagenseil - Quartets for Low Strings (Piccolo Concerto Wien, Roberto Sensi) - 2013, FLAC (tracks+.cue) lossless


 

[Цитировать]

Georg Christoph Wagenseil - Quartets for Low Strings (Piccolo Concerto Wien)
Жанр: Classical
Год издания диска: 2013
Издатель (лейбл): Accent
Номер по каталогу: ACC 24242
Аудиокодек: FLAC
Тип рипа: tracks+.cue
Битрейт аудио: lossless
Продолжительность: 01:37:35
Источник: скачано из сети
Наличие сканов в содержимом раздачи: да
Исполнители:
Piccolo Concerto Wien
Roberto Sensi, conductor
Треклист:
CD1
Sonata III in C Major "Suite des pièces"
Sonata II in F Major
Sonata IV in A Major
CD2
Sonata VI in G Major
Sonata V in B Major
Sonata I in D Major

LOGs:CD 1

Exact Audio Copy V1.0 beta 3 from 29. August 2011
EAC extraction logfile from 26. January 2014, 12:11
Georg Christoph Wagenseil / Quartets for low strings CD1
Used drive : PLEXTOR DVDR PX-860A Adapter: 0 ID: 0
Read mode : Secure
Utilize accurate stream : Yes
Defeat audio cache : Yes
Make use of C2 pointers : No
Read offset correction : 96
Overread into Lead-In and Lead-Out : No
Fill up missing offset samples with silence : Yes
Delete leading and trailing silent blocks : No
Null samples used in CRC calculations : Yes
Used interface : Native Win32 interface for Win NT & 2000
Gap handling : Appended to previous track
Used output format : User Defined Encoder
Selected bitrate : 1024 kBit/s
Quality : High
Add ID3 tag : No
Command line compressor : C:\Program Files\Exact Audio Copy\Flac\flac.exe
Additional command line options : -8 -V -T "ARTIST=%artist%" -T "TITLE=%title%" -T "ALBUM=%albumtitle%" -T "DATE=%year%" -T "TRACKNUMBER=%tracknr%" -T "TOTALTRACKS=%numtracks%" -T "GENRE=%genre%" -T "ALBUMARTIST=%albumartist%" -T "ALBUM ARTIST=%albumartist%" -T "COMMENT=EAC Secure Mode, Test & Copy, AccurateRip, FLAC -8" %source%
TOC of the extracted CD
Track | Start | Length | Start sector | End sector
---------------------------------------------------------
1 | 0:00.32 | 6:43.10 | 32 | 30266
2 | 6:43.42 | 6:35.70 | 30267 | 59961
3 | 13:19.37 | 4:31.43 | 59962 | 80329
4 | 17:51.05 | 1:34.05 | 80330 | 87384
5 | 19:25.10 | 4:52.07 | 87385 | 109291
6 | 24:17.17 | 4:46.35 | 109292 | 130776
7 | 29:03.52 | 6:16.65 | 130777 | 159041
8 | 35:20.42 | 2:36.18 | 159042 | 170759
9 | 37:56.60 | 2:43.50 | 170760 | 183034
10 | 40:40.35 | 2:35.62 | 183035 | 194721
11 | 43:16.22 | 3:59.10 | 194722 | 212656
12 | 47:15.32 | 2:46.00 | 212657 | 225106
Track 1
Filename O:\DL\Georg Christoph Wagenseil - Quartets for low strings CD1 (2013) [FLAC]\01 - Sonata III in C - Vivace.wav
Pre-gap length 0:00:02.42
Peak level 60.9 %
Extraction speed 4.7 X
Track quality 100.0 %
Test CRC E4EA7522
Copy CRC E4EA7522
Cannot be verified as accurate (confidence 2) [55B9E340], AccurateRip returned [3C39553C] (AR v2)
Copy OK
Track 2
Filename O:\DL\Georg Christoph Wagenseil - Quartets for low strings CD1 (2013) [FLAC]\02 - Sonata III in C - Larghetto.wav
Peak level 59.3 %
Extraction speed 5.3 X
Track quality 100.0 %
Test CRC C88A5BE1
Copy CRC C88A5BE1
Cannot be verified as accurate (confidence 2) [2A14F9A0], AccurateRip returned [CBB92848] (AR v2)
Copy OK
Track 3
Filename O:\DL\Georg Christoph Wagenseil - Quartets for low strings CD1 (2013) [FLAC]\03 - Sonata III in C - Menuet.wav
Peak level 49.8 %
Extraction speed 5.2 X
Track quality 99.9 %
Test CRC A87CEB49
Copy CRC A87CEB49
Cannot be verified as accurate (confidence 2) [B2FA9F28], AccurateRip returned [455CF0BC] (AR v2)
Copy OK
Track 4
Filename O:\DL\Georg Christoph Wagenseil - Quartets for low strings CD1 (2013) [FLAC]\04 - Sonata III in C - Vivace.wav
Peak level 53.6 %
Extraction speed 4.9 X
Track quality 100.0 %
Test CRC A950D5DA
Copy CRC A950D5DA
Cannot be verified as accurate (confidence 2) [5B7CA799], AccurateRip returned [8EADE946] (AR v2)
Copy OK
Track 5
Filename O:\DL\Georg Christoph Wagenseil - Quartets for low strings CD1 (2013) [FLAC]\05 - Sonata II in F - Allegro non troppo.wav
Peak level 62.7 %
Extraction speed 6.4 X
Track quality 100.0 %
Test CRC 60C9DA13
Copy CRC 60C9DA13
Cannot be verified as accurate (confidence 2) [D0C73DCE], AccurateRip returned [44712045] (AR v2)
Copy OK
Track 6
Filename O:\DL\Georg Christoph Wagenseil - Quartets for low strings CD1 (2013) [FLAC]\06 - Sonata II in F - Menuet.wav
Peak level 37.5 %
Extraction speed 6.0 X
Track quality 99.9 %
Test CRC BF455ACB
Copy CRC BF455ACB
Cannot be verified as accurate (confidence 2) [1174D180], AccurateRip returned [D0F35199] (AR v2)
Copy OK
Track 7
Filename O:\DL\Georg Christoph Wagenseil - Quartets for low strings CD1 (2013) [FLAC]\07 - Sonata II in F - Largo.wav
Peak level 44.3 %
Extraction speed 7.2 X
Track quality 100.0 %
Test CRC C4C09087
Copy CRC C4C09087
Cannot be verified as accurate (confidence 2) [0B974B35], AccurateRip returned [441AA3D1] (AR v2)
Copy OK
Track 8
Filename O:\DL\Georg Christoph Wagenseil - Quartets for low strings CD1 (2013) [FLAC]\08 - Sonata II in F - Allegro assai.wav
Peak level 67.4 %
Extraction speed 6.6 X
Track quality 100.0 %
Test CRC F67A7044
Copy CRC F67A7044
Cannot be verified as accurate (confidence 2) [14EABBDA], AccurateRip returned [99CE865D] (AR v2)
Copy OK
Track 9
Filename O:\DL\Georg Christoph Wagenseil - Quartets for low strings CD1 (2013) [FLAC]\09 - Sonata IV in A - Comodo.wav
Peak level 58.2 %
Extraction speed 5.6 X
Track quality 99.9 %
Test CRC D4168E9C
Copy CRC D4168E9C
Cannot be verified as accurate (confidence 2) [337B3665], AccurateRip returned [3B1A27C9] (AR v2)
Copy OK
Track 10
Filename O:\DL\Georg Christoph Wagenseil - Quartets for low strings CD1 (2013) [FLAC]\10 - Sonata IV in A - Allegro molto.wav
Peak level 71.3 %
Extraction speed 6.7 X
Track quality 100.0 %
Test CRC 4967DB49
Copy CRC 4967DB49
Cannot be verified as accurate (confidence 2) [35093AC5], AccurateRip returned [2274950F] (AR v2)
Copy OK
Track 11
Filename O:\DL\Georg Christoph Wagenseil - Quartets for low strings CD1 (2013) [FLAC]\11 - Sonata IV in A - Larghetto.wav
Peak level 45.4 %
Extraction speed 7.5 X
Track quality 100.0 %
Test CRC 5956F7DA
Copy CRC 5956F7DA
Cannot be verified as accurate (confidence 2) [FEFCE852], AccurateRip returned [907B8727] (AR v2)
Copy OK
Track 12
Filename O:\DL\Georg Christoph Wagenseil - Quartets for low strings CD1 (2013) [FLAC]\12 - Sonata IV in A - Tempo di Menuet.wav
Peak level 69.5 %
Extraction speed 6.2 X
Track quality 99.9 %
Test CRC C77F368B
Copy CRC C77F368B
Cannot be verified as accurate (confidence 2) [F4B438B3], AccurateRip returned [0F09649E] (AR v2)
Copy OK
No tracks could be verified as accurate
You may have a different pressing from the one(s) in the database
No errors occurred
End of status report
==== Log checksum 2890D78279E4898FF8D5B39D08DD6085D75B0A94DA58F3B3B7F2929A06834655 ====

CD 2

Exact Audio Copy V1.0 beta 3 from 29. August 2011
EAC extraction logfile from 26. January 2014, 14:07
Georg Christoph Wagenseil / Quartets for low strings CD2
Used drive : PLEXTOR DVDR PX-860A Adapter: 0 ID: 0
Read mode : Secure
Utilize accurate stream : Yes
Defeat audio cache : Yes
Make use of C2 pointers : No
Read offset correction : 96
Overread into Lead-In and Lead-Out : No
Fill up missing offset samples with silence : Yes
Delete leading and trailing silent blocks : No
Null samples used in CRC calculations : Yes
Used interface : Native Win32 interface for Win NT & 2000
Gap handling : Appended to previous track
Used output format : User Defined Encoder
Selected bitrate : 1024 kBit/s
Quality : High
Add ID3 tag : No
Command line compressor : C:\Program Files\Exact Audio Copy\Flac\flac.exe
Additional command line options : -8 -V -T "ARTIST=%artist%" -T "TITLE=%title%" -T "ALBUM=%albumtitle%" -T "DATE=%year%" -T "TRACKNUMBER=%tracknr%" -T "TOTALTRACKS=%numtracks%" -T "GENRE=%genre%" -T "ALBUMARTIST=%albumartist%" -T "ALBUM ARTIST=%albumartist%" -T "COMMENT=EAC Secure Mode, Test & Copy, AccurateRip, FLAC -8" %source%
TOC of the extracted CD
Track | Start | Length | Start sector | End sector
---------------------------------------------------------
1 | 0:00.32 | 4:27.33 | 32 | 20089
2 | 4:27.65 | 3:04.55 | 20090 | 33944
3 | 7:32.45 | 6:09.35 | 33945 | 61654
4 | 13:42.05 | 2:19.37 | 61655 | 72116
5 | 16:01.42 | 4:49.65 | 72117 | 93856
6 | 20:51.32 | 4:45.48 | 93857 | 115279
7 | 25:37.05 | 3:13.00 | 115280 | 129754
8 | 28:50.05 | 1:38.05 | 129755 | 137109
9 | 30:28.10 | 3:55.22 | 137110 | 154756
10 | 34:23.32 | 5:29.10 | 154757 | 179441
11 | 39:52.42 | 4:39.60 | 179442 | 200426
12 | 44:32.27 | 3:03.05 | 200427 | 214156
Track 1
Filename O:\DL\Georg Christoph Wagenseil - Quartets for low strings CD2 (2013) [FLAC]\01 - Sonata VI in G - Andante.wav
Pre-gap length 0:00:02.42
Peak level 80.7 %
Extraction speed 4.4 X
Track quality 100.0 %
Test CRC AE91D844
Copy CRC AE91D844
Cannot be verified as accurate (confidence 2) [57CB38B7], AccurateRip returned [B20814CF] (AR v2)
Copy OK
Track 2
Filename O:\DL\Georg Christoph Wagenseil - Quartets for low strings CD2 (2013) [FLAC]\02 - Sonata VI in G - Allegro.wav
Peak level 63.5 %
Extraction speed 4.6 X
Track quality 100.0 %
Test CRC EDCD5206
Copy CRC EDCD5206
Cannot be verified as accurate (confidence 2) [CD1BF4BF], AccurateRip returned [FDE7C1F3] (AR v2)
Copy OK
Track 3
Filename O:\DL\Georg Christoph Wagenseil - Quartets for low strings CD2 (2013) [FLAC]\03 - Sonata VI in G - Andante.wav
Peak level 56.8 %
Extraction speed 5.5 X
Track quality 100.0 %
Test CRC 89415991
Copy CRC 89415991
Cannot be verified as accurate (confidence 2) [E9D72D70], AccurateRip returned [8D435978] (AR v2)
Copy OK
Track 4
Filename O:\DL\Georg Christoph Wagenseil - Quartets for low strings CD2 (2013) [FLAC]\04 - Sonata VI in G - Tempo di Menuet.wav
Peak level 55.4 %
Extraction speed 5.2 X
Track quality 100.0 %
Test CRC 385EAD14
Copy CRC 385EAD14
Cannot be verified as accurate (confidence 2) [A09553C4], AccurateRip returned [341EFADD] (AR v2)
Copy OK
Track 5
Filename O:\DL\Georg Christoph Wagenseil - Quartets for low strings CD2 (2013) [FLAC]\05 - Sonata V in B - Vivace.wav
Peak level 55.8 %
Extraction speed 6.0 X
Track quality 100.0 %
Test CRC 10F69F2F
Copy CRC 10F69F2F
Cannot be verified as accurate (confidence 2) [088599E8], AccurateRip returned [605160E7] (AR v2)
Copy OK
Track 6
Filename O:\DL\Georg Christoph Wagenseil - Quartets for low strings CD2 (2013) [FLAC]\06 - Sonata V in B - Menuet.wav
Peak level 54.2 %
Extraction speed 6.1 X
Track quality 100.0 %
Test CRC 65E37298
Copy CRC 65E37298
Cannot be verified as accurate (confidence 2) [AA2A537B], AccurateRip returned [9EC50E19] (AR v2)
Copy OK
Track 7
Filename O:\DL\Georg Christoph Wagenseil - Quartets for low strings CD2 (2013) [FLAC]\07 - Sonata V in B - Andante.wav
Peak level 21.5 %
Extraction speed 6.3 X
Track quality 100.0 %
Test CRC 450398C3
Copy CRC 450398C3
Cannot be verified as accurate (confidence 2) [CE00CB81], AccurateRip returned [7A40DE14] (AR v2)
Copy OK
Track 8
Filename O:\DL\Georg Christoph Wagenseil - Quartets for low strings CD2 (2013) [FLAC]\08 - Sonata V in B - Spiritoso.wav
Peak level 43.3 %
Extraction speed 5.7 X
Track quality 100.0 %
Test CRC 4B06D52E
Copy CRC 4B06D52E
Cannot be verified as accurate (confidence 2) [D6121CDF], AccurateRip returned [1C97F134] (AR v2)
Copy OK
Track 9
Filename O:\DL\Georg Christoph Wagenseil - Quartets for low strings CD2 (2013) [FLAC]\09 - Sonata I in D - Allegro assai.wav
Peak level 68.0 %
Extraction speed 6.9 X
Track quality 100.0 %
Test CRC 3481FF53
Copy CRC 3481FF53
Cannot be verified as accurate (confidence 2) [0B3F59E8], AccurateRip returned [359AA506] (AR v2)
Copy OK
Track 10
Filename O:\DL\Georg Christoph Wagenseil - Quartets for low strings CD2 (2013) [FLAC]\10 - Sonata I in D - Menuet.wav
Peak level 53.1 %
Extraction speed 7.6 X
Track quality 100.0 %
Test CRC E2609A88
Copy CRC E2609A88
Cannot be verified as accurate (confidence 2) [4B7F94C5], AccurateRip returned [19FBE44E] (AR v2)
Copy OK
Track 11
Filename O:\DL\Georg Christoph Wagenseil - Quartets for low strings CD2 (2013) [FLAC]\11 - Sonata I in D - Largetto.wav
Peak level 44.3 %
Extraction speed 7.6 X
Track quality 100.0 %
Test CRC D6518F62
Copy CRC D6518F62
Cannot be verified as accurate (confidence 2) [5FD1804B], AccurateRip returned [B39290C4] (AR v2)
Copy OK
Track 12
Filename O:\DL\Georg Christoph Wagenseil - Quartets for low strings CD2 (2013) [FLAC]\12 - Sonata I in D - Vivace.wav
Peak level 60.5 %
Extraction speed 7.4 X
Track quality 100.0 %
Test CRC 2268C727
Copy CRC 2268C727
Cannot be verified as accurate (confidence 2) [61DBD0C2], AccurateRip returned [BFFC3C0F] (AR v2)
Copy OK
No tracks could be verified as accurate
You may have a different pressing from the one(s) in the database
No errors occurred
End of status report
==== Log checksum 5C18A5D82B196836BA30A1D60AD42421E9C2B6C489C225A0BB38CDA54793904B ====

LOG (.CUE):CD 1

REM GENRE Classical
REM DATE 2013
REM DISCID A40BB90C
REM COMMENT "ExactAudioCopy v1.0b3"
PERFORMER "Georg Christoph Wagenseil"
TITLE "Quartets for low strings CD1"
FILE "01 - Sonata III in C - Vivace.wav" WAVE
TRACK 01 AUDIO
TITLE "Sonata III in C - Vivace"
PERFORMER "Georg Christoph Wagenseil"
PREGAP 00:00:32
INDEX 01 00:00:00
FILE "02 - Sonata III in C - Larghetto.wav" WAVE
TRACK 02 AUDIO
TITLE "Sonata III in C - Larghetto"
PERFORMER "Georg Christoph Wagenseil"
INDEX 01 00:00:00
FILE "03 - Sonata III in C - Menuet.wav" WAVE
TRACK 03 AUDIO
TITLE "Sonata III in C - Menuet"
PERFORMER "Georg Christoph Wagenseil"
INDEX 01 00:00:00
FILE "04 - Sonata III in C - Vivace.wav" WAVE
TRACK 04 AUDIO
TITLE "Sonata III in C - Vivace"
PERFORMER "Georg Christoph Wagenseil"
INDEX 01 00:00:00
FILE "05 - Sonata II in F - Allegro non troppo.wav" WAVE
TRACK 05 AUDIO
TITLE "Sonata II in F - Allegro non troppo"
PERFORMER "Georg Christoph Wagenseil"
INDEX 01 00:00:00
FILE "06 - Sonata II in F - Menuet.wav" WAVE
TRACK 06 AUDIO
TITLE "Sonata II in F - Menuet"
PERFORMER "Georg Christoph Wagenseil"
INDEX 01 00:00:00
FILE "07 - Sonata II in F - Largo.wav" WAVE
TRACK 07 AUDIO
TITLE "Sonata II in F - Largo"
PERFORMER "Georg Christoph Wagenseil"
INDEX 01 00:00:00
FILE "08 - Sonata II in F - Allegro assai.wav" WAVE
TRACK 08 AUDIO
TITLE "Sonata II in F - Allegro assai"
PERFORMER "Georg Christoph Wagenseil"
INDEX 01 00:00:00
FILE "09 - Sonata IV in A - Comodo.wav" WAVE
TRACK 09 AUDIO
TITLE "Sonata IV in A - Comodo"
PERFORMER "Georg Christoph Wagenseil"
INDEX 01 00:00:00
FILE "10 - Sonata IV in A - Allegro molto.wav" WAVE
TRACK 10 AUDIO
TITLE "Sonata IV in A - Allegro molto"
PERFORMER "Georg Christoph Wagenseil"
INDEX 01 00:00:00
FILE "11 - Sonata IV in A - Larghetto.wav" WAVE
TRACK 11 AUDIO
TITLE "Sonata IV in A - Larghetto"
PERFORMER "Georg Christoph Wagenseil"
INDEX 01 00:00:00
FILE "12 - Sonata IV in A - Tempo di Menuet.wav" WAVE
TRACK 12 AUDIO
TITLE "Sonata IV in A - Tempo di Menuet"
PERFORMER "Georg Christoph Wagenseil"
INDEX 01 00:00:00

CD 2

REM GENRE Classical
REM DATE 2013
REM DISCID A80B270C
REM COMMENT "ExactAudioCopy v1.0b3"
PERFORMER "Georg Christoph Wagenseil"
TITLE "Quartets for low strings CD2"
FILE "01 - Sonata VI in G - Andante.wav" WAVE
TRACK 01 AUDIO
TITLE "Sonata VI in G - Andante"
PERFORMER "Georg Christoph Wagenseil"
PREGAP 00:00:32
INDEX 01 00:00:00
FILE "02 - Sonata VI in G - Allegro.wav" WAVE
TRACK 02 AUDIO
TITLE "Sonata VI in G - Allegro"
PERFORMER "Georg Christoph Wagenseil"
INDEX 01 00:00:00
FILE "03 - Sonata VI in G - Andante.wav" WAVE
TRACK 03 AUDIO
TITLE "Sonata VI in G - Andante"
PERFORMER "Georg Christoph Wagenseil"
INDEX 01 00:00:00
FILE "04 - Sonata VI in G - Tempo di Menuet.wav" WAVE
TRACK 04 AUDIO
TITLE "Sonata VI in G - Tempo di Menuet"
PERFORMER "Georg Christoph Wagenseil"
INDEX 01 00:00:00
FILE "05 - Sonata V in B - Vivace.wav" WAVE
TRACK 05 AUDIO
TITLE "Sonata V in B - Vivace"
PERFORMER "Georg Christoph Wagenseil"
INDEX 01 00:00:00
FILE "06 - Sonata V in B - Menuet.wav" WAVE
TRACK 06 AUDIO
TITLE "Sonata V in B - Menuet"
PERFORMER "Georg Christoph Wagenseil"
INDEX 01 00:00:00
FILE "07 - Sonata V in B - Andante.wav" WAVE
TRACK 07 AUDIO
TITLE "Sonata V in B - Andante"
PERFORMER "Georg Christoph Wagenseil"
INDEX 01 00:00:00
FILE "08 - Sonata V in B - Spiritoso.wav" WAVE
TRACK 08 AUDIO
TITLE "Sonata V in B - Spiritoso"
PERFORMER "Georg Christoph Wagenseil"
INDEX 01 00:00:00
FILE "09 - Sonata I in D - Allegro assai.wav" WAVE
TRACK 09 AUDIO
TITLE "Sonata I in D - Allegro assai"
PERFORMER "Georg Christoph Wagenseil"
INDEX 01 00:00:00
FILE "10 - Sonata I in D - Menuet.wav" WAVE
TRACK 10 AUDIO
TITLE "Sonata I in D - Menuet"
PERFORMER "Georg Christoph Wagenseil"
INDEX 01 00:00:00
FILE "11 - Sonata I in D - Largetto.wav" WAVE
TRACK 11 AUDIO
TITLE "Sonata I in D - Largetto"
PERFORMER "Georg Christoph Wagenseil"
INDEX 01 00:00:00
FILE "12 - Sonata I in D - Vivace.wav" WAVE
TRACK 12 AUDIO
TITLE "Sonata I in D - Vivace"
PERFORMER "Georg Christoph Wagenseil"
INDEX 01 00:00:00
mp3



Показать сообщения:    

Текущее время: 05-Дек 15:29

Часовой пояс: UTC + 3


Вы не можете начинать темы
Вы не можете отвечать на сообщения
Вы не можете редактировать свои сообщения
Вы не можете удалять свои сообщения
Вы не можете голосовать в опросах
Вы не можете прикреплять файлы к сообщениям
Вы не можете скачивать файлы