(Classical) Von Weber - Piano Concertos * Symphonies * Overtures (Academy of St. Martin-in-the-Fields, Marriner - Staatskapelle Dresden, Blomstedt/Kuhn) - 2003, APE (image+.cue) lossless


 

[Цитировать]

Carl Maria Von Weber - Piano Concertos * Symphonies * Overtures
Жанр: Classical
Страна-производитель диска: EU
Год издания диска: 2003
Издатель (лейбл): Brilliant
Номер по каталогу: 99935
Дата записи: 1982-1985
Аудиокодек: APE
Тип рипа: image+.cue
Битрейт аудио: lossless
Продолжительность: 43'43 + 60'59 + 53'22
Источник: собственный рип
Наличие сканов в содержимом раздачи: да
Треклист/Исполнители:
Von Weber - Symphony No. 1 and 2 (CD1):
Symphony No.1 in C major:
1. I. Allegro con fuoco
2. II. Andante
3. III. Scherzo, presto
4. IV. Finale, presto
Symphony No.2 in C major:
5. I. Allegro
6. II. Adagio, ma non troppo
7. III. Menuetto, allegro
8. IV. Finale, scherzo: presto
Academy of St. Martin-in-the-Fields
Sir Neville MarrinerVon Weber - Konzertstück, Piano Concerto No. 1 and 2 (CD2)
1. Konzertstuck in F minor Op.79
Piano Concerto No.1 in C major Op.11:
2. I. Allegro
3. II. Adagio
4. III. Finale, presto
Piano Concerto No.2 in E flat major Op.32:
5. I. Allegro maestoso
6. II. Adagio
7. III. Rondo, presto
Peter Rösel, piano
Staatskapelle Dresden
Herbert BlomstedtVon Weber - Overtures (CD3):
1. Euryanthe
2. Abu Hassan
3. Preziosa
4. Beherrscher der Geister (Rubezahl)
5. Oberon
6. Jubel-Ouverture
7. Der Freischutz
Staatskapelle Dresden
Guatav Kuhn

Лог создания рипа

CD1

Exact Audio Copy V1.0 beta 3 from 29. August 2011
EAC extraction logfile from 25. June 2014, 16:52
Von Weber / Symphony No. 1 and 2
Used drive : HL-DT-STDVDRAM GH22NS50 Adapter: 0 ID: 2
Read mode : Secure
Utilize accurate stream : Yes
Defeat audio cache : Yes
Make use of C2 pointers : No
Read offset correction : 667
Overread into Lead-In and Lead-Out : No
Fill up missing offset samples with silence : Yes
Delete leading and trailing silent blocks : No
Null samples used in CRC calculations : Yes
Used interface : Native Win32 interface for Win NT & 2000
Used output format : Monkey's Audio Lossless Encoder
Selected bitrate : High Lossless Compression
Quality : High
Add ID3 tag : No
Command line compressor : C:\Program Files (x86)\Exact Audio Copy\MAC\MAC.exe
TOC of the extracted CD
Track | Start | Length | Start sector | End sector
---------------------------------------------------------
1 | 0:00.32 | 7:13.10 | 32 | 32516
2 | 7:13.42 | 6:41.23 | 32517 | 62614
3 | 13:54.65 | 4:11.17 | 62615 | 81456
4 | 18:06.07 | 7:02.38 | 81457 | 113144
5 | 25:08.45 | 9:53.30 | 113145 | 157649
6 | 35:02.00 | 4:45.00 | 157650 | 179024
7 | 39:47.00 | 1:23.02 | 179025 | 185251
8 | 41:10.02 | 2:24.48 | 185252 | 196099
Range status and errors
Selected range
Filename D:\EAC\Von Weber - Symphony No. 1 and 2.wav
Peak level 84.4 %
Extraction speed 1.7 X
Range quality 100.0 %
Test CRC 06115095
Copy CRC 06115095
Copy OK
No errors occurred
AccurateRip summary
Track 1 accurately ripped (confidence 16) [695720B1] (AR v2)
Track 2 accurately ripped (confidence 16) [B96D46DE] (AR v2)
Track 3 accurately ripped (confidence 16) [3F980486] (AR v2)
Track 4 accurately ripped (confidence 16) [3CE16DD4] (AR v2)
Track 5 accurately ripped (confidence 16) [17D0CD59] (AR v2)
Track 6 accurately ripped (confidence 16) [24A6116C] (AR v2)
Track 7 accurately ripped (confidence 16) [57450E3B] (AR v2)
Track 8 accurately ripped (confidence 16) [BED5A85D] (AR v2)
All tracks accurately ripped
End of status report
---- CUETools DB Plugin V2.1.3
[CTDB TOCID: t4quDrE2DEhMYUENj.QGuePfD6U-] found, Submit result: discs with pregaps not supported in this protocol version
[8a1a7587] (25/25) Differs in 0 samples @
You can use CUETools to repair this rip.
==== Log checksum B50254F9845C345587ADA2FA89BBD988480FB3FF52E841597AED6A2D2EB4C447 ====

CD2

Exact Audio Copy V1.0 beta 3 from 29. August 2011
EAC extraction logfile from 25. June 2014, 16:43
Von Weber / Overtures
Used drive : TSSTcorpCDDVDW SE-208AB Adapter: 1 ID: 1
Read mode : Secure
Utilize accurate stream : Yes
Defeat audio cache : Yes
Make use of C2 pointers : No
Read offset correction : 6
Overread into Lead-In and Lead-Out : No
Fill up missing offset samples with silence : Yes
Delete leading and trailing silent blocks : No
Null samples used in CRC calculations : Yes
Used interface : Native Win32 interface for Win NT & 2000
Used output format : Monkey's Audio Lossless Encoder
Selected bitrate : High Lossless Compression
Quality : High
Add ID3 tag : No
Command line compressor : C:\Program Files (x86)\Exact Audio Copy\MAC\MAC.exe
TOC of the extracted CD
Track | Start | Length | Start sector | End sector
---------------------------------------------------------
1 | 0:00.33 | 8:41.57 | 33 | 39164
2 | 8:42.15 | 3:38.68 | 39165 | 55582
3 | 12:21.08 | 8:20.00 | 55583 | 93082
4 | 20:41.08 | 5:47.10 | 93083 | 119117
5 | 26:28.18 | 8:55.62 | 119118 | 159304
6 | 35:24.05 | 7:55.40 | 159305 | 194969
7 | 43:19.45 | 10:03.33 | 194970 | 240227
Range status and errors
Selected range
Filename D:\EAC\Von Weber - Overtures.wav
Peak level 99.0 %
Extraction speed 1.8 X
Range quality 100.0 %
Test CRC 10FE1ADE
Copy CRC 10FE1ADE
Copy OK
No errors occurred
AccurateRip summary
Track 1 accurately ripped (confidence 16) [85B2B3E8] (AR v2)
Track 2 accurately ripped (confidence 16) [FAD728F0] (AR v2)
Track 3 accurately ripped (confidence 16) [EE7C3E2F] (AR v2)
Track 4 accurately ripped (confidence 16) [71170183] (AR v2)
Track 5 accurately ripped (confidence 16) [9C0CDD11] (AR v2)
Track 6 accurately ripped (confidence 16) [6F062E87] (AR v2)
Track 7 accurately ripped (confidence 16) [48D64479] (AR v2)
All tracks accurately ripped
End of status report
---- CUETools DB Plugin V2.1.3
[CTDB TOCID: G2Ji6PeIYxoBotF4IDAN1Ih6GWY-] found, Submit result: discs with pregaps not supported in this protocol version
[0394afc5] (24/24) Differs in 0 samples @
You can use CUETools to repair this rip.
==== Log checksum 5646F5DB7CEC92E3371D140A2E557F995F056420FD709C5662E0AB9E8A08C11A ====

CD3

Exact Audio Copy V1.0 beta 3 from 29. August 2011
EAC extraction logfile from 25. June 2014, 18:25
Von Weber / Konzertstück, Piano Concerto No. 1 and 2
Used drive : HL-DT-STDVDRAM GH22NS50 Adapter: 0 ID: 2
Read mode : Secure
Utilize accurate stream : Yes
Defeat audio cache : Yes
Make use of C2 pointers : No
Read offset correction : 667
Overread into Lead-In and Lead-Out : No
Fill up missing offset samples with silence : Yes
Delete leading and trailing silent blocks : No
Null samples used in CRC calculations : Yes
Used interface : Native Win32 interface for Win NT & 2000
Used output format : Monkey's Audio Lossless Encoder
Selected bitrate : High Lossless Compression
Quality : High
Add ID3 tag : No
Command line compressor : C:\Program Files (x86)\Exact Audio Copy\MAC\MAC.exe
TOC of the extracted CD
Track | Start | Length | Start sector | End sector
---------------------------------------------------------
1 | 0:00.32 | 17:11.18 | 32 | 77374
2 | 17:11.50 | 8:59.15 | 77375 | 117814
3 | 26:10.65 | 4:25.45 | 117815 | 137734
4 | 30:36.35 | 7:10.67 | 137735 | 170051
5 | 37:47.27 | 10:24.25 | 170052 | 216876
6 | 48:11.52 | 5:45.03 | 216877 | 242754
7 | 53:56.55 | 7:02.30 | 242755 | 274434
Range status and errors
Selected range
Filename D:\EAC\Von Weber - Konzertstück, Piano Concerto No. 1 and 2.wav
Suspicious position 0:17:03
Suspicious position 0:26:09 - 0:26:10
Suspicious position 0:48:07
Peak level 82.8 %
Extraction speed 1.5 X
Range quality 99.9 %
Test CRC E88BB856
Copy CRC 2F228ED2
Copy finished
There were errors
AccurateRip summary
Track 1 cannot be verified as accurate (confidence 15) [2BC9CE9E], AccurateRip returned [734055C0] (AR v2)
Track 2 cannot be verified as accurate (confidence 15) [5E852E55], AccurateRip returned [75771601] (AR v2)
Track 3 accurately ripped (confidence 15) [5E3AA52A] (AR v2)
Track 4 accurately ripped (confidence 14) [0C10CD8A] (AR v2)
Track 5 cannot be verified as accurate (confidence 14) [8B31457C], AccurateRip returned [FDC311B5] (AR v2)
Track 6 accurately ripped (confidence 15) [151EF9BD] (AR v2)
Track 7 accurately ripped (confidence 14) [37D6E166] (AR v2)
4 track(s) accurately ripped
3 track(s) could not be verified as accurate
Some tracks could not be verified as accurate
End of status report
---- CUETools DB Plugin V2.1.3
[CTDB TOCID: d9BSA2iq9MOAdYPT0S8oJ0vyIkg-] found, Submit result: discs with pregaps not supported in this protocol version
[d0e5d4ce] (28/28) Differs in 29 samples @17:03:17,26:09:57,26:09:68,48:07:30-48:07:31
You can use CUETools to repair this rip.
==== Log checksum 81C0DA45EEE63C502F8DECE0D48541BEED1BB42737194E44F1D2A3274FAA4D0B ====

Содержание индексной карты (.CUE)

CD1

REM GENRE Classical
REM DATE 1982
REM DISCID 630A3608
REM COMMENT "ExactAudioCopy v1.0b3"
PERFORMER "Von Weber"
TITLE "Symphony No. 1 and 2"
FILE "Von Weber - Symphony No. 1 and 2.ape" WAVE
TRACK 01 AUDIO
TITLE "Von Weber.Symphony No.1 in C major:I. Allegro con fuoco"
PERFORMER "Von Weber"
INDEX 00 00:00:00
INDEX 01 00:00:32
TRACK 02 AUDIO
TITLE "Von Weber.Symphony No.1 in C major:II. Andante"
PERFORMER "Von Weber"
INDEX 00 07:09:20
INDEX 01 07:13:42
TRACK 03 AUDIO
TITLE "Von Weber.Symphony No.1 in C major:III. Scherzo, presto"
PERFORMER "Von Weber"
INDEX 00 13:53:65
INDEX 01 13:54:65
TRACK 04 AUDIO
TITLE "Von Weber.Symphony No.1 in C major:IV. Finale, presto"
PERFORMER "Von Weber"
INDEX 01 18:06:07
TRACK 05 AUDIO
TITLE "Von Weber.Symphony No.2 in C major:I. Allegro"
PERFORMER "Von Weber"
INDEX 00 24:58:12
INDEX 01 25:08:45
TRACK 06 AUDIO
TITLE "Von Weber.Symphony No.2 in C major:II. Adagio, ma non troppo"
PERFORMER "Von Weber"
INDEX 00 34:59:00
INDEX 01 35:02:00
TRACK 07 AUDIO
TITLE "Von Weber.Symphony No.2 in C major:III. Menuetto, allegro"
PERFORMER "Von Weber"
INDEX 00 39:43:37
INDEX 01 39:47:00
TRACK 08 AUDIO
TITLE "Von Weber.Symphony No.2 in C major:IV. Finale, scherzo: presto"
PERFORMER "Von Weber"
INDEX 00 41:08:12
INDEX 01 41:10:02

CD2

REM GENRE Classical
REM DATE 1985
REM DISCID 480C8307
REM COMMENT "ExactAudioCopy v1.0b3"
PERFORMER "Von Weber"
TITLE "Overtures"
FILE "Von Weber - Overtures.ape" WAVE
TRACK 01 AUDIO
TITLE "Von Weber.Euryanthe"
PERFORMER "Von Weber"
INDEX 00 00:00:00
INDEX 01 00:00:33
TRACK 02 AUDIO
TITLE "Von Weber.Abu Hassan"
PERFORMER "Von Weber"
INDEX 00 08:34:48
INDEX 01 08:42:15
TRACK 03 AUDIO
TITLE "Von Weber.Preziosa"
PERFORMER "Von Weber"
INDEX 00 12:13:73
INDEX 01 12:21:08
TRACK 04 AUDIO
TITLE "Von Weber.Beherrscher der Geister (Rubezahl)"
PERFORMER "Von Weber"
INDEX 00 20:33:68
INDEX 01 20:41:08
TRACK 05 AUDIO
TITLE "Von Weber.Oberon"
PERFORMER "Von Weber"
INDEX 00 26:20:05
INDEX 01 26:28:18
TRACK 06 AUDIO
TITLE "Von Weber.Jubel-Ouverture"
PERFORMER "Von Weber"
INDEX 00 35:15:58
INDEX 01 35:24:05
TRACK 07 AUDIO
TITLE "Von Weber.Der Freischutz"
PERFORMER "Von Weber"
INDEX 00 43:09:50
INDEX 01 43:19:45

CD3

REM GENRE Classical
REM DATE 1984
REM DISCID 650E4B07
REM COMMENT "ExactAudioCopy v1.0b3"
PERFORMER "Von Weber"
TITLE "Konzertstück, Piano Concerto No. 1 and 2"
FILE "Von Weber - Konzertstück, Piano Concerto No. 1 and 2.ape" WAVE
TRACK 01 AUDIO
TITLE "Von Weber.Konzertstuck in F minor Op.79"
PERFORMER "Von Weber"
INDEX 00 00:00:00
INDEX 01 00:00:32
TRACK 02 AUDIO
TITLE "Von Weber.Piano Concerto No.1 in C major Op.11:I. Allegro"
PERFORMER "Von Weber"
INDEX 00 17:04:12
INDEX 01 17:11:50
TRACK 03 AUDIO
TITLE "Von Weber.Piano Concerto No.1 in C major Op.11:II. Adagio"
PERFORMER "Von Weber"
INDEX 00 26:07:37
INDEX 01 26:10:65
TRACK 04 AUDIO
TITLE "Von Weber.Piano Concerto No.1 in C major Op.11:III. Finale, presto"
PERFORMER "Von Weber"
INDEX 00 30:34:27
INDEX 01 30:36:35
TRACK 05 AUDIO
TITLE "Von Weber.Piano Concerto No.2 in E flat major Op.32:I. Allegro maestoso"
PERFORMER "Von Weber"
INDEX 00 37:42:20
INDEX 01 37:47:27
TRACK 06 AUDIO
TITLE "Von Weber.Piano Concerto No.2 in E flat major Op.32:II. Adagio"
PERFORMER "Von Weber"
INDEX 00 48:07:05
INDEX 01 48:11:52
TRACK 07 AUDIO
TITLE "Von Weber.Piano Concerto No.2 in E flat major Op.32:III. Rondo, presto"
PERFORMER "Von Weber"
INDEX 00 53:53:32
INDEX 01 53:56:55



Показать сообщения:    

Текущее время: 03-Дек 22:45

Часовой пояс: UTC + 3


Вы не можете начинать темы
Вы не можете отвечать на сообщения
Вы не можете редактировать свои сообщения
Вы не можете удалять свои сообщения
Вы не можете голосовать в опросах
Вы не можете прикреплять файлы к сообщениям
Вы не можете скачивать файлы