(Classical, guitar, contemporary) In Strange Company (A Nocturnal Journey): Crumb, Fagerudd, Kurtag, Tuomela - Petri Kumela, Nikula, Malmivirta, Kankaanranta, Rautiola, Puusepp, Ignatius, Ferchen - 2013, FLAC (image+.cue) lossless


 

[Цитировать]

In Strange Company (A Nocturnal Journey): Crumb, Fagerudd, Kurtág, Tuomela - Petri Kumela, Nikula, Malmivirta, Kankaanranta, Rautiola, Puusepp, Ignatius, Ferchen
Жанр: Classical, guitar, contemporary
Страна-производитель диска: Finland
Год издания диска: 2013
Издатель (лейбл): Alba Records
Номер по каталогу: ABCD 366
Дата записи: 2013
Аудиокодек: FLAC
Тип рипа: image+.cue
Битрейт аудио: lossless
Продолжительность: 52:27
Источник: собственный рип
Наличие сканов в содержимом раздачи: да
Треклист:
Markus Fagerudd (b.1961)
[1] In F (I Dream of Bob Beamon) - Bluesoresque I (2013)
György Kurtág (b.1926)
[2]-[5] A Kis Csáva, Op. 15b (1978)
Markus Fagerudd
[6] Slow and Howl - Bluesoresque II (2013)
Tapio Tuomela (b.1958)
[7] Crisp (2011)
Markus Fagerudd
[8] G & Bb - Bluesoresque III (2013)
George Crumb (b.1929)
[9]-[16] Quest (1994)
Исполнители:
Petri Kumela classical guitar & steel string guitar [1-16]
Heikki Nikula bass clarinet [1, 6, 8]
Heljä Räty piccolo flute [2-5]
Valtteri Malmivirta trombone [2-5]
Eija Kankaanranta kantele [7] & dulcimer [9-16]
Joonatan Rautiola soprano saxophone & harmonica [9-16]
Lily-Marlene Puusepp harp [9-16]
Eero Ignatius double bass [9-16]
Jani Niinimäki percussion [9-16]
Tim Ferchen percussion [9-16]

Лог создания рипа

Exact Audio Copy V1.0 beta 3 from 29. August 2011
EAC extraction logfile from 28. March 2014, 17:23
Petri Kumela / In Strange Company
Used drive : HL-DT-STDVDRRW GWA-4164B Adapter: 5 ID: 0
Read mode : Secure
Utilize accurate stream : Yes
Defeat audio cache : Yes
Make use of C2 pointers : No
Read offset correction : 102
Overread into Lead-In and Lead-Out : No
Fill up missing offset samples with silence : Yes
Delete leading and trailing silent blocks : No
Null samples used in CRC calculations : Yes
Used interface : Native Win32 interface for Win NT & 2000
Used output format : User Defined Encoder
Selected bitrate : 896 kBit/s
Quality : High
Add ID3 tag : No
Command line compressor : C:\Program Files\Exact Audio Copy\FLAC\FLAC.EXE
Additional command line options : -V -8 %source%
TOC of the extracted CD
Track | Start | Length | Start sector | End sector
---------------------------------------------------------
1 | 0:00.00 | 3:58.66 | 0 | 17915
2 | 3:58.66 | 1:01.46 | 17916 | 22536
3 | 5:00.37 | 1:12.70 | 22537 | 28006
4 | 6:13.32 | 1:25.65 | 28007 | 34446
5 | 7:39.22 | 3:00.06 | 34447 | 47952
6 | 10:39.28 | 3:32.25 | 47953 | 63877
7 | 14:11.53 | 11:10.29 | 63878 | 114156
8 | 25:22.07 | 2:27.50 | 114157 | 125231
9 | 27:49.57 | 0:50.41 | 125232 | 129022
10 | 28:40.23 | 4:43.23 | 129023 | 150270
11 | 33:23.46 | 2:07.18 | 150271 | 159813
12 | 35:30.64 | 0:41.11 | 159814 | 162899
13 | 36:12.00 | 4:30.16 | 162900 | 183165
14 | 40:42.16 | 1:04.29 | 183166 | 187994
15 | 41:46.45 | 1:05.06 | 187995 | 192875
16 | 42:51.51 | 10:03.44 | 192876 | 238144
Range status and errors
Selected range
Filename D:\temp\Music\In Strange Company - Petri Kumela\In Strange Company.wav
Peak level 94.6 %
Extraction speed 2.8 X
Range quality 99.9 %
Test CRC AF3A8C3C
Copy CRC AF3A8C3C
Copy OK
No errors occurred
AccurateRip summary
Track 1 not present in database
Track 2 not present in database
Track 3 not present in database
Track 4 not present in database
Track 5 not present in database
Track 6 not present in database
Track 7 not present in database
Track 8 not present in database
Track 9 not present in database
Track 10 not present in database
Track 11 not present in database
Track 12 not present in database
Track 13 not present in database
Track 14 not present in database
Track 15 not present in database
Track 16 not present in database
None of the tracks are present in the AccurateRip database
End of status report
==== Log checksum 6BB0EA8F27B9D153B042818AE7FC4191580B2D23177304528D26E3BB0F8BDFA1 ====



Показать сообщения:    

Текущее время: 21-Янв 11:38

Часовой пояс: UTC + 3


Вы не можете начинать темы
Вы не можете отвечать на сообщения
Вы не можете редактировать свои сообщения
Вы не можете удалять свои сообщения
Вы не можете голосовать в опросах
Вы не можете прикреплять файлы к сообщениям
Вы не можете скачивать файлы