(Classical) Josef Suk - Piano Quintet; Piano Quartet - The Nash Ensemble - 2012, FLAC (image+.cue) lossless


 

[Цитировать]

Josef Suk - Piano Quintet; Piano Quartet - The Nash Ensemble
Жанр: Classical
Страна-производитель диска: UK
Год издания диска: 2012
Издатель (лейбл): Hyperion
Номер по каталогу: CDH55416
Дата записи: 2003
Аудиокодек: FLAC
Тип рипа: image+.cue
Битрейт аудио: lossless
Продолжительность: 73:00
Источник: собственный рип
Наличие сканов в содержимом раздачи: да
Треклист:
Josef Suk (1874-1935)
[1]-[3] Piano Quartet in A minor, Op.1
[4]-[7] Four pieces for violin and piano, Op.17
[8]-[11] Piano Quintet in G minor, Op.8
Исполнители:
The Nash Ensemble
Marianne Thorsen violin I
Benjamin Nabarro violin II
Lawrence Power viola
Paul Watkins cello
Ian Brown piano

Лог создания рипа

Exact Audio Copy V1.0 beta 3 from 29. August 2011
EAC extraction logfile from 29. June 2014, 19:00
The Nash Ensemble / Suk - Piano Quintet; Piano Quartet
Used drive : HL-DT-STDVDRAM GSA-4083N Adapter: 1 ID: 0
Read mode : Secure
Utilize accurate stream : Yes
Defeat audio cache : Yes
Make use of C2 pointers : No
Read offset correction : 667
Overread into Lead-In and Lead-Out : No
Fill up missing offset samples with silence : Yes
Delete leading and trailing silent blocks : No
Null samples used in CRC calculations : Yes
Used interface : Native Win32 interface for Win NT & 2000
Used output format : User Defined Encoder
Selected bitrate : 896 kBit/s
Quality : High
Add ID3 tag : No
Command line compressor : C:\Program Files\Exact Audio Copy\Flac\flac.exe
Additional command line options : -V -8 %source%
TOC of the extracted CD
Track | Start | Length | Start sector | End sector
---------------------------------------------------------
1 | 0:00.00 | 7:23.07 | 0 | 33231
2 | 7:23.07 | 7:58.07 | 33232 | 69088
3 | 15:21.14 | 7:18.11 | 69089 | 101949
4 | 22:39.25 | 5:13.37 | 101950 | 125461
5 | 27:52.62 | 4:07.48 | 125462 | 144034
6 | 32:00.35 | 3:55.04 | 144035 | 161663
7 | 35:55.39 | 3:21.31 | 161664 | 176769
8 | 39:16.70 | 8:18.12 | 176770 | 214131
9 | 47:35.07 | 9:55.04 | 214132 | 258760
10 | 57:30.11 | 5:55.35 | 258761 | 285420
11 | 63:25.46 | 9:32.29 | 285421 | 328349
Range status and errors
Selected range
Filename J:\New Music\CDA67448 - Suk - Piano Quintet; Piano Quartet\Suk - Piano Quintet; Piano Quartet.wav
Peak level 100.0 %
Extraction speed 3.5 X
Range quality 99.9 %
Test CRC 04284E5F
Copy CRC 04284E5F
Copy OK
No errors occurred
AccurateRip summary
Track 1 accurately ripped (confidence 4) [517A74EF] (AR v2)
Track 2 accurately ripped (confidence 4) [484FEA31] (AR v2)
Track 3 accurately ripped (confidence 4) [7070BB02] (AR v2)
Track 4 accurately ripped (confidence 4) [9802D13B] (AR v2)
Track 5 accurately ripped (confidence 4) [51719D27] (AR v2)
Track 6 accurately ripped (confidence 4) [7189C8DA] (AR v2)
Track 7 accurately ripped (confidence 4) [0648BEB8] (AR v2)
Track 8 accurately ripped (confidence 4) [26D091BB] (AR v2)
Track 9 accurately ripped (confidence 4) [F2DA2966] (AR v2)
Track 10 accurately ripped (confidence 4) [BA4AC6C8] (AR v2)
Track 11 accurately ripped (confidence 4) [3FA176E4] (AR v2)
All tracks accurately ripped
End of status report
==== Log checksum 6918E8A2E9EE63CDC48D39722FB20051FDC05CEB89641FF57C70313156AD1F40 ====



Показать сообщения:    

Текущее время: 19-Янв 22:17

Часовой пояс: UTC + 3


Вы не можете начинать темы
Вы не можете отвечать на сообщения
Вы не можете редактировать свои сообщения
Вы не можете удалять свои сообщения
Вы не можете голосовать в опросах
Вы не можете прикреплять файлы к сообщениям
Вы не можете скачивать файлы