(Classical) Johann Christoph Friedrich Bach - Sonatas & Trios; Sonata in A, G & e, Trio in D & G (Camerata Koln) - 2007, FLAC (image+.cue) lossless


 

[Цитировать]

Johann Christoph Friedrich Bach - Sonatas & Trios (Camerata Koln)
Жанр: Classical
Год издания диска: 2007
Издатель (лейбл): CPO
Номер по каталогу: 777 087-2
Аудиокодек: FLAC
Тип рипа: image+.cue
Битрейт аудио: lossless
Продолжительность: 66:57
Источник: скачано из сети
Наличие сканов в содержимом раздачи: да
Треклист:
1 Trio in D major - Allegro con spirito 6:21
2 Andante 4:41
3 Rondo: Scherzo 4:12
4 Sonata in A - Larghetto 3:29
5 Allegro 5:38
6 Tempo di minuetto 4:23
7 Sonata in e - Allegro spiritoso 5:03
8 Andante 4:06
9 Allegretto 5:15
10 Sonata in G - Allegretto 5:08
11 Rondeaux 3:29
12 Trio in G - Allegro 5:51
13 Larghetto (Andante) 4:59
14 Rondo: Allegretto 4:22
Исполнители:
Camerata Köln

LOG EAC

Exact Audio Copy V1.0 beta 3 from 29. August 2011
EAC extraction logfile from 3. August 2013, 13:38
Concerto Köln / J.C.F. Bach: Sonates & Trios
Used drive : PIONEER BD-RW BDR-206 Adapter: 0 ID: 2
Read mode : Secure
Utilize accurate stream : Yes
Defeat audio cache : Yes
Make use of C2 pointers : No
Read offset correction : 667
Overread into Lead-In and Lead-Out : No
Fill up missing offset samples with silence : Yes
Delete leading and trailing silent blocks : No
Null samples used in CRC calculations : Yes
Used interface : Native Win32 interface for Win NT & 2000
Used output format : User Defined Encoder
Selected bitrate : 1024 kBit/s
Quality : High
Add ID3 tag : Yes
Command line compressor : C:\Program Files\FLAC\flac.exe
Additional command line options : -5 -T "Artist=%artist%" -T "Title=%title%" -T "Album=%albumtitle%" -T "Date=%year%" -T "Tracknumber=%tracknr%" -T "Genre=%genre%" %source% -o %dest%
TOC of the extracted CD
Track | Start | Length | Start sector | End sector
---------------------------------------------------------
1 | 0:00.00 | 6:20.42 | 0 | 28541
2 | 6:20.42 | 4:40.66 | 28542 | 49607
3 | 11:01.33 | 4:12.35 | 49608 | 68542
4 | 15:13.68 | 3:29.16 | 68543 | 84233
5 | 18:43.09 | 5:37.74 | 84234 | 109582
6 | 24:21.08 | 4:23.07 | 109583 | 129314
7 | 28:44.15 | 5:02.53 | 129315 | 152017
8 | 33:46.68 | 4:06.37 | 152018 | 170504
9 | 37:53.30 | 5:15.08 | 170505 | 194137
10 | 43:08.38 | 5:08.17 | 194138 | 217254
11 | 48:16.55 | 3:28.52 | 217255 | 232906
12 | 51:45.32 | 5:51.20 | 232907 | 259251
13 | 57:36.52 | 4:58.60 | 259252 | 281661
14 | 62:35.37 | 4:22.34 | 281662 | 301345
Range status and errors
Selected range
Filename F:\=== VINYL RIPS ===\=== EAC===\X FRESH RIP\J.C.F. Bach- Concerto Köln - Sonates & Trios.wav
Peak level 94.0 %
Extraction speed 7.9 X
Range quality 100.0 %
Copy CRC 07C76E21
Copy OK
No errors occurred
AccurateRip summary
Track 1 accurately ripped (confidence 2) [6EC7A1C9] (AR v2)
Track 2 accurately ripped (confidence 2) [26C11ED1] (AR v2)
Track 3 accurately ripped (confidence 2) [670F6A4A] (AR v2)
Track 4 accurately ripped (confidence 2) [30921945] (AR v2)
Track 5 accurately ripped (confidence 2) [49F2031F] (AR v2)
Track 6 accurately ripped (confidence 2) [DAE78665] (AR v2)
Track 7 accurately ripped (confidence 2) [2FD1657D] (AR v2)
Track 8 accurately ripped (confidence 2) [46FBD235] (AR v2)
Track 9 accurately ripped (confidence 2) [4E255619] (AR v2)
Track 10 accurately ripped (confidence 2) [62900E22] (AR v2)
Track 11 accurately ripped (confidence 2) [093FBEFF] (AR v2)
Track 12 accurately ripped (confidence 2) [B35E5AE2] (AR v2)
Track 13 accurately ripped (confidence 2) [7D65AA27] (AR v2)
Track 14 accurately ripped (confidence 2) [E7DF7CDD] (AR v2)
All tracks accurately ripped
End of status report
---- CUETools DB Plugin V2.1.3
[CTDB TOCID: TQjZswJpKxOHa4nwvYQNHLfPaZA-] found, Submit result: TQjZswJpKxOHa4nwvYQNHLfPaZA- has been confirmed
[34db668a] (1/1) Accurately ripped
==== Log checksum E806CC4253E3E976986413A4D2BE7E4723CCEB73E2FBE98DBE83692AEC684FF5 ====
mp3



Показать сообщения:    

Текущее время: 03-Дек 20:45

Часовой пояс: UTC + 3


Вы не можете начинать темы
Вы не можете отвечать на сообщения
Вы не можете редактировать свои сообщения
Вы не можете удалять свои сообщения
Вы не можете голосовать в опросах
Вы не можете прикреплять файлы к сообщениям
Вы не можете скачивать файлы