(Classical) Manfredini - 12 Concerti op. 3 (Les Amis de Philippe, Ludger Remy) - 2000, APE (image+.cue) lossless


 

[Цитировать]

Francesco Manfredini - 12 Concerti op. 3
Жанр: Classical
Страна-производитель диска: Germany
Год издания диска: 2000
Издатель (лейбл): CPO
Номер по каталогу: 999 638-2
Дата записи: 1998-1999
Аудиокодек: APE
Тип рипа: image+.cue
Битрейт аудио: lossless
Продолжительность: 78:41
Источник: собственный рип
Наличие сканов в содержимом раздачи: да
Треклист:
Треклист:
Concerto primo in F
01. I. Allegro assai [00:02:06]
02. II. Presto [00:02:13]
03. III. Allegro [00:01:01]
Concerto quinto in d
04. I. Adagio [00:00:55]
05. II. Allegro [00:01:58]
06. III. Andante [00:00:55]
07. IV. Presto [00:01:54]
Concerto nono in D
08. I. Adagio - Presto [00:02:48]
09. II. Largo [00:03:02]
10. III. Allegro [00:02:22]
Concerto secondo in a
11. I. Presto [00:02:17]
12. II. Allegro I [00:01:21]
13. III. Allegro II [00:01:04]
Concerto sesto in D
14. I. Allegro [00:02:23]
15. II. Adagio - Presto - Adagio [00:01:38]
16. III. Allegro [00:02:17]
Concerto decimo in g
17. I. Adagio [00:01:29]
18. II. Allegro [00:02:47]
19. III. Largo [00:02:34]
20. IV. Presto [00:02:37]
Concerto terzo in e
21. I. Allegro [00:01:32]
22. II. Largo [00:01:07]
23. III. Presto [00:01:30]
24. IV. Presto [00:01:09]
Concerto settimo in G
25. I. Allegro [00:02:10]
26. II. Adagio [00:02:13]
27. III. Presto [00:02:09]
Concerto undecimo in c
28. I. Allegro [00:03:06]
29. II. Adagio [00:02:28]
30. III. Allegro [00:02:08]
Concerto quarto in B
31. I. Allegro [00:01:21]
32. II. Adagio [00:01:21]
33. III. Presto [00:01:24]
34. IV. Allegro [00:01:01]
Concerto ottavo in F
35. I. Grave - Allegro [00:02:31]
36. II. Adagio - Presto - Adagio [00:01:38]
37. III. Presto [00:02:26]
Concerto duodecimo in C
'Pastorale per il Natale Santissimo'
38. I. Largo [00:03:49]
39. II. Largo [00:01:42]
40. III. Allegro [00:01:56]
Исполнители:
Les Amis De Philippe, classical ensemble founded in 1994 by Ludger Rémy, is named after Carl Philipp Emanuel Bach.
Members:
Almut Backhaus, Anne Schumann, Beate Röllecke, Gregor Anthony, Harald Martens, Haralt Martens, Jochen Grüner, Klaus Bona, Lothar Haass, Ludger Rémy, Monika Schwamberger, Renate Gentz, Sabine Kuhlmann, Sebastian Knebel, Thordes Hohbach, Ulla Schneider

Лог создания рипа

Exact Audio Copy V1.0 beta 3 from 29. August 2011
EAC extraction logfile from 8. July 2014, 0:01
Manfredini / 12 Concerti op. 3, Rémy
Used drive : TSSTcorpCDDVDW SE-208AB Adapter: 1 ID: 1
Read mode : Secure
Utilize accurate stream : Yes
Defeat audio cache : Yes
Make use of C2 pointers : No
Read offset correction : 6
Overread into Lead-In and Lead-Out : No
Fill up missing offset samples with silence : Yes
Delete leading and trailing silent blocks : No
Null samples used in CRC calculations : Yes
Used interface : Native Win32 interface for Win NT & 2000
Used output format : Monkey's Audio Lossless Encoder
Selected bitrate : High Lossless Compression
Quality : High
Add ID3 tag : No
Command line compressor : C:\Program Files (x86)\Exact Audio Copy\MAC\MAC.exe
TOC of the extracted CD
Track | Start | Length | Start sector | End sector
---------------------------------------------------------
1 | 0:00.00 | 2:06.57 | 0 | 9506
2 | 2:06.57 | 2:13.18 | 9507 | 19499
3 | 4:20.00 | 1:01.20 | 19500 | 24094
4 | 5:21.20 | 0:55.02 | 24095 | 28221
5 | 6:16.22 | 1:58.38 | 28222 | 37109
6 | 8:14.60 | 0:55.35 | 37110 | 41269
7 | 9:10.20 | 1:54.42 | 41270 | 49861
8 | 11:04.62 | 2:48.43 | 49862 | 62504
9 | 13:53.30 | 3:02.72 | 62505 | 76226
10 | 16:56.27 | 2:22.18 | 76227 | 86894
11 | 19:18.45 | 2:17.57 | 86895 | 97226
12 | 21:36.27 | 1:21.43 | 97227 | 103344
13 | 22:57.70 | 1:04.02 | 103345 | 108146
14 | 24:01.72 | 2:23.15 | 108147 | 118886
15 | 26:25.12 | 1:38.63 | 118887 | 126299
16 | 28:04.00 | 2:17.55 | 126300 | 136629
17 | 30:21.55 | 1:29.07 | 136630 | 143311
18 | 31:50.62 | 2:47.58 | 143312 | 155894
19 | 34:38.45 | 2:34.52 | 155895 | 167496
20 | 37:13.22 | 2:37.43 | 167497 | 179314
21 | 39:50.65 | 1:32.30 | 179315 | 186244
22 | 41:23.20 | 1:07.37 | 186245 | 191306
23 | 42:30.57 | 1:30.08 | 191307 | 198064
24 | 44:00.65 | 1:09.47 | 198065 | 203286
25 | 45:10.37 | 2:10.00 | 203287 | 213036
26 | 47:20.37 | 2:13.05 | 213037 | 223016
27 | 49:33.42 | 2:09.67 | 223017 | 232758
28 | 51:43.34 | 3:06.03 | 232759 | 246711
29 | 54:49.37 | 2:28.00 | 246712 | 257811
30 | 57:17.37 | 2:08.03 | 257812 | 267414
31 | 59:25.40 | 1:21.62 | 267415 | 273551
32 | 60:47.27 | 1:21.58 | 273552 | 279684
33 | 62:09.10 | 1:24.30 | 279685 | 286014
34 | 63:33.40 | 1:01.55 | 286015 | 290644
35 | 64:35.20 | 2:31.57 | 290645 | 302026
36 | 67:07.02 | 1:38.58 | 302027 | 309434
37 | 68:45.60 | 2:26.17 | 309435 | 320401
38 | 71:12.02 | 3:49.38 | 320402 | 337614
39 | 75:01.40 | 1:42.20 | 337615 | 345284
40 | 76:43.60 | 1:56.17 | 345285 | 354001
Range status and errors
Selected range
Filename D:\EAC\Manfredini - 12 Concerti op. 3, Rémy.wav
Peak level 100.0 %
Extraction speed 2.3 X
Range quality 99.9 %
Test CRC 3BF74E5E
Copy CRC 3BF74E5E
Copy OK
No errors occurred
AccurateRip summary
Track 1 accurately ripped (confidence 6) [9ECC2899] (AR v2)
Track 2 accurately ripped (confidence 6) [08FBDC06] (AR v2)
Track 3 accurately ripped (confidence 6) [0004364B] (AR v2)
Track 4 accurately ripped (confidence 6) [1007F31B] (AR v2)
Track 5 accurately ripped (confidence 6) [9C347A1A] (AR v2)
Track 6 accurately ripped (confidence 6) [6D4D0CA3] (AR v2)
Track 7 accurately ripped (confidence 6) [4D34F5A2] (AR v2)
Track 8 accurately ripped (confidence 6) [32B203B7] (AR v2)
Track 9 accurately ripped (confidence 6) [F6950542] (AR v2)
Track 10 accurately ripped (confidence 6) [1B24F9DB] (AR v2)
Track 11 accurately ripped (confidence 6) [F177315C] (AR v2)
Track 12 accurately ripped (confidence 6) [9295DE28] (AR v2)
Track 13 accurately ripped (confidence 6) [1B8F1BF9] (AR v2)
Track 14 accurately ripped (confidence 6) [CB1BD3DE] (AR v2)
Track 15 accurately ripped (confidence 6) [94290D8E] (AR v2)
Track 16 accurately ripped (confidence 6) [83EDC8C2] (AR v2)
Track 17 accurately ripped (confidence 6) [F4BD7FF5] (AR v2)
Track 18 accurately ripped (confidence 6) [B15714D9] (AR v2)
Track 19 accurately ripped (confidence 6) [F3B033E1] (AR v2)
Track 20 accurately ripped (confidence 6) [BFA72BA1] (AR v2)
Track 21 accurately ripped (confidence 6) [697C2C5C] (AR v2)
Track 22 accurately ripped (confidence 6) [2A1B1B34] (AR v2)
Track 23 accurately ripped (confidence 6) [C0A8DA34] (AR v2)
Track 24 accurately ripped (confidence 6) [43699C88] (AR v2)
Track 25 accurately ripped (confidence 6) [7D082712] (AR v2)
Track 26 accurately ripped (confidence 6) [16BEE89A] (AR v2)
Track 27 accurately ripped (confidence 6) [685F9BF9] (AR v2)
Track 28 accurately ripped (confidence 6) [8B571E6D] (AR v2)
Track 29 accurately ripped (confidence 6) [95C94745] (AR v2)
Track 30 accurately ripped (confidence 6) [B24B4AF1] (AR v2)
Track 31 accurately ripped (confidence 6) [18BA6029] (AR v2)
Track 32 accurately ripped (confidence 6) [5AF5FCDD] (AR v2)
Track 33 accurately ripped (confidence 5) [9795EC39] (AR v2)
Track 34 accurately ripped (confidence 6) [E8B1EC82] (AR v2)
Track 35 accurately ripped (confidence 6) [B9C65B58] (AR v2)
Track 36 accurately ripped (confidence 6) [82022109] (AR v2)
Track 37 accurately ripped (confidence 6) [4E625905] (AR v2)
Track 38 accurately ripped (confidence 6) [4F80545C] (AR v2)
Track 39 accurately ripped (confidence 6) [EC61BB10] (AR v2)
Track 40 accurately ripped (confidence 6) [5BC08F37] (AR v2)
All tracks accurately ripped
End of status report
---- CUETools DB Plugin V2.1.3
[CTDB TOCID: NrS69XhXV265Wd4_56zzRa1JriA-] found, Submit result: NrS69XhXV265Wd4_56zzRa1JriA- has been confirmed
[b3ae43b0] (8/8) Accurately ripped
==== Log checksum 91F724357613790F68062DECD7B6226B03C7D3126464E1507C02977FB454A3C6 ====

Содержание индексной карты (.CUE)

REM GENRE Concerto
REM DATE 1999
REM DISCID 5E127028
REM COMMENT "ExactAudioCopy v1.0b3"
CATALOG 0761203963829
PERFORMER "Manfredini"
TITLE "12 Concerti op. 3, Rémy"
FILE "Manfredini - 12 Concerti op. 3, Rémy.ape" WAVE
TRACK 01 AUDIO
TITLE "Concerto I in F - 1. Allegro assai"
PERFORMER "Manfredini"
ISRC DEB209963801
INDEX 01 00:00:00
TRACK 02 AUDIO
TITLE "Concerto I in F - 2. Presto"
PERFORMER "Manfredini"
ISRC DEB209963802
INDEX 01 02:06:57
TRACK 03 AUDIO
TITLE "Concerto I in F - 3. Allegro"
PERFORMER "Manfredini"
ISRC DEB209963803
INDEX 01 04:20:00
TRACK 04 AUDIO
TITLE "Concerto V in d - 1. Adagio"
PERFORMER "Manfredini"
ISRC DEB209963804
INDEX 01 05:21:20
TRACK 05 AUDIO
TITLE "Concerto V in d - 2. Allegro"
PERFORMER "Manfredini"
ISRC DEB209963805
INDEX 01 06:16:22
TRACK 06 AUDIO
TITLE "Concerto V in d - 3. Andante"
PERFORMER "Manfredini"
ISRC DEB209963806
INDEX 01 08:14:60
TRACK 07 AUDIO
TITLE "Concerto V in d - 4. Presto"
PERFORMER "Manfredini"
ISRC DEB209963807
INDEX 01 09:10:20
TRACK 08 AUDIO
TITLE "Concerto IX in D - 1. Adagio - Presto"
PERFORMER "Manfredini"
ISRC DEB209963808
INDEX 01 11:04:62
TRACK 09 AUDIO
TITLE "Concerto IX in D - 2. Largo"
PERFORMER "Manfredini"
ISRC DEB209963809
INDEX 01 13:53:30
TRACK 10 AUDIO
TITLE "Concerto IX in D - 3. Allegro"
PERFORMER "Manfredini"
ISRC DEB209963810
INDEX 01 16:56:27
TRACK 11 AUDIO
TITLE "Concerto II in a - 1. Presto"
PERFORMER "Manfredini"
ISRC DEB209963811
INDEX 01 19:18:45
TRACK 12 AUDIO
TITLE "Concerto II in a - 2. Allegro I"
PERFORMER "Manfredini"
ISRC DEB209963812
INDEX 01 21:36:27
TRACK 13 AUDIO
TITLE "Concerto II in a - 3. Allegro II"
PERFORMER "Manfredini"
ISRC DEB209963813
INDEX 01 22:57:70
TRACK 14 AUDIO
TITLE "Concerto VI in D - 1. Allegro"
PERFORMER "Manfredini"
ISRC DEB209963814
INDEX 01 24:01:72
TRACK 15 AUDIO
TITLE "Concerto VI in D - 2. Adagio - Presto - Adagio"
PERFORMER "Manfredini"
ISRC DEB209963815
INDEX 01 26:25:12
TRACK 16 AUDIO
TITLE "Concerto VI in D - 3. Allegro"
PERFORMER "Manfredini"
ISRC DEB209963816
INDEX 01 28:04:00
TRACK 17 AUDIO
TITLE "Concerto X in g - 1. Adagio"
PERFORMER "Manfredini"
ISRC DEB209963816
INDEX 01 30:21:55
TRACK 18 AUDIO
TITLE "Concerto X in g - 2. Allegro"
PERFORMER "Manfredini"
ISRC DEB209963818
INDEX 01 31:50:62
TRACK 19 AUDIO
TITLE "Concerto X in g - 3. Largo"
PERFORMER "Manfredini"
ISRC DEB209963818
INDEX 01 34:38:45
TRACK 20 AUDIO
TITLE "Concerto X in g - 4. Presto"
PERFORMER "Manfredini"
ISRC DEB209963819
INDEX 01 37:13:22
TRACK 21 AUDIO
TITLE "Concerto III in e - 1. Allegro"
PERFORMER "Manfredini"
ISRC DEB209963821
INDEX 01 39:50:65
TRACK 22 AUDIO
TITLE "Concerto III in e - 2. Largo"
PERFORMER "Manfredini"
ISRC DEB209963822
INDEX 01 41:23:20
TRACK 23 AUDIO
TITLE "Concerto III in e - 3. Presto I"
PERFORMER "Manfredini"
ISRC DEB209963823
INDEX 01 42:30:57
TRACK 24 AUDIO
TITLE "Concerto III in e - 4. Presto II"
PERFORMER "Manfredini"
ISRC DEB209963824
INDEX 01 44:00:65
TRACK 25 AUDIO
TITLE "Concerto VII in G - 1. Allegro"
PERFORMER "Manfredini"
ISRC DEB209963825
INDEX 01 45:10:37
TRACK 26 AUDIO
TITLE "Concerto VII in G - 2. Adagio"
PERFORMER "Manfredini"
ISRC DEB209963825
INDEX 01 47:20:37
TRACK 27 AUDIO
TITLE "Concerto VII in G - 3. Presto"
PERFORMER "Manfredini"
ISRC DEB209963827
INDEX 01 49:33:42
TRACK 28 AUDIO
TITLE "Concerto XI in c - 1. Allegro"
PERFORMER "Manfredini"
ISRC DEB209963827
INDEX 01 51:43:34
TRACK 29 AUDIO
TITLE "Concerto XI in c - 2. Adagio"
PERFORMER "Manfredini"
ISRC DEB209963829
INDEX 01 54:49:37
TRACK 30 AUDIO
TITLE "Concerto XI in c - 3. Allegro"
PERFORMER "Manfredini"
ISRC DEB209963830
INDEX 01 57:17:37
TRACK 31 AUDIO
TITLE "Concerto IV in B - 1. Allegro"
PERFORMER "Manfredini"
ISRC DEB209963831
INDEX 01 59:25:40
TRACK 32 AUDIO
TITLE "Concerto IV in B - 2. Adagio"
PERFORMER "Manfredini"
ISRC DEB209963832
INDEX 01 60:47:27
TRACK 33 AUDIO
TITLE "Concerto IV in B - 3. Presto"
PERFORMER "Manfredini"
ISRC DEB209963833
INDEX 01 62:09:10
TRACK 34 AUDIO
TITLE "Concerto IV in B - 4. Allegro"
PERFORMER "Manfredini"
ISRC DEB209963834
INDEX 01 63:33:40
TRACK 35 AUDIO
TITLE "Concerto VIII in F - 1. Grave - Allegro"
PERFORMER "Manfredini"
ISRC DEB209963835
INDEX 01 64:35:20
TRACK 36 AUDIO
TITLE "Concerto VIII in F - 2. Adagio - Presto - Adagio"
PERFORMER "Manfredini"
ISRC DEB209963836
INDEX 01 67:07:02
TRACK 37 AUDIO
TITLE "Concerto VIII in F - 3. Presto"
PERFORMER "Manfredini"
ISRC DEB209963836
INDEX 01 68:45:60
TRACK 38 AUDIO
TITLE "Concerto XII in C 'Pastorale per il Santissimo Natale' - 1. Largo"
PERFORMER "Manfredini"
ISRC DEB209963838
INDEX 01 71:12:02
TRACK 39 AUDIO
TITLE "Concerto XII in C 'Pastorale per il Santissimo Natale' - 2. Largo"
PERFORMER "Manfredini"
ISRC DEB209963839
INDEX 01 75:01:40
TRACK 40 AUDIO
TITLE "Concerto XII in C 'Pastorale per il Santissimo Natale' - 3. Allegro"
PERFORMER "Manfredini"
ISRC DEB209963840
INDEX 01 76:43:60



Показать сообщения:    

Текущее время: 10-Дек 23:31

Часовой пояс: UTC + 3


Вы не можете начинать темы
Вы не можете отвечать на сообщения
Вы не можете редактировать свои сообщения
Вы не можете удалять свои сообщения
Вы не можете голосовать в опросах
Вы не можете прикреплять файлы к сообщениям
Вы не можете скачивать файлы