(Classical) English Recorder Music: Lane, Arnold, Pitfield, Gregson, Lyon, Parrott, Bullard - John Turner, Royal Ballet Sinfonia, Gavin Sutherland, Edward Gregson - 2010, FLAC (image+.cue) lossless


Статистика раздачи [Обновить пиров]
Размер:  317 MB   |    Зарегистрирован:  8 месяцев 17 дней   |    Скачан:  0 раз

Полного источника не было: Никогда

Личеров:  3  [  0 KB/s  ]   Подробная статистика пиров
 
   
 
 
 

[Цитировать]

English Recorder Music: Lane, Arnold, Pitfield, Gregson, Lyon, Parrott, Bullard - John Turner, Royal Ballet Sinfonia, Gavin Sutherland, Edward Gregson
Жанр: Classical
Год издания диска: 2010
Издатель (лейбл): Naxos
Номер по каталогу: 8.572503
Дата записи: 1999
Аудиокодек: FLAC
Тип рипа: image+.cue
Битрейт аудио: lossless
Продолжительность: 73:37
Источник: собственный рип
Наличие сканов в содержимом раздачи: да
Треклист:
Philip Lane (b.1950)
[1]-[4] Suite Ancienne for recorder and string orchestra
Sir Malcolm Arnold (1921-2006)
[5]-[7] Concertino for recorder and string orchestra, Op. 41a
Thomas Pitfield (1903–1999)
[8]-[10] Concerto for recorder, string orchestra and percussion
Edward Gregson (b.1945)
[11]-[13] Three Matisse Impressions for recorder, strings, harp and percussion *
David Lyon (b.1938)
[14]-[16] Concertino for recorder and string orchestra
Thomas Pitfield
[17]-[19] Three Nautical Sketches for recorder and string orchestra
Ian Parrott (b.1916)
[20]-[21] Prelude and Waltz for recorder and string orchestra
Alan Bullard (b.1947)
[22]-[26] Recipes for recorder and string orchestra
Исполнители:
John Turner recorder
Royal Ballet Sinfonia
Gavin Sutherland
Edward Gregson *

Лог создания рипа

Exact Audio Copy V1.0 beta 3 from 29. August 2011
EAC extraction logfile from 7. April 2014, 18:06
John Turner, Royal Ballet Sinfonia, Gavin Sutherland / English Recorder Music
Used drive : HL-DT-STDVDRRW GWA-4164B Adapter: 5 ID: 0
Read mode : Secure
Utilize accurate stream : Yes
Defeat audio cache : Yes
Make use of C2 pointers : No
Read offset correction : 102
Overread into Lead-In and Lead-Out : No
Fill up missing offset samples with silence : Yes
Delete leading and trailing silent blocks : No
Null samples used in CRC calculations : Yes
Used interface : Native Win32 interface for Win NT & 2000
Used output format : User Defined Encoder
Selected bitrate : 896 kBit/s
Quality : High
Add ID3 tag : No
Command line compressor : C:\Program Files\Exact Audio Copy\FLAC\FLAC.EXE
Additional command line options : -V -8 %source%
TOC of the extracted CD
Track | Start | Length | Start sector | End sector
---------------------------------------------------------
1 | 0:00.00 | 1:27.74 | 0 | 6598
2 | 1:27.74 | 2:32.58 | 6599 | 18056
3 | 4:00.57 | 3:15.60 | 18057 | 32741
4 | 7:16.42 | 1:44.39 | 32742 | 40580
5 | 9:01.06 | 3:04.55 | 40581 | 54435
6 | 12:05.61 | 2:36.04 | 54436 | 66139
7 | 14:41.65 | 1:48.25 | 66140 | 74264
8 | 16:30.15 | 4:33.23 | 74265 | 94762
9 | 21:03.38 | 3:09.67 | 94763 | 109004
10 | 24:13.30 | 3:44.73 | 109005 | 125877
11 | 27:58.28 | 2:48.17 | 125878 | 138494
12 | 30:46.45 | 3:58.57 | 138495 | 156401
13 | 34:45.27 | 3:27.29 | 156402 | 171955
14 | 38:12.56 | 3:20.31 | 171956 | 186986
15 | 41:33.12 | 3:46.54 | 186987 | 203990
16 | 45:19.66 | 3:00.42 | 203991 | 217532
17 | 48:20.33 | 1:56.47 | 217533 | 226279
18 | 50:17.05 | 2:41.51 | 226280 | 238405
19 | 52:58.56 | 1:41.33 | 238406 | 246013
20 | 54:40.14 | 3:12.50 | 246014 | 260463
21 | 57:52.64 | 5:30.19 | 260464 | 285232
22 | 63:23.08 | 1:59.69 | 285233 | 294226
23 | 65:23.02 | 2:18.16 | 294227 | 304592
24 | 67:41.18 | 1:52.13 | 304593 | 313005
25 | 69:33.31 | 2:23.66 | 313006 | 323796
26 | 71:57.22 | 1:37.53 | 323797 | 331124
Range status and errors
Selected range
Filename D:\temp\Music\Naxos_8.572503 - English Recorder Music\English Recorder Music.wav
Peak level 98.1 %
Extraction speed 3.1 X
Range quality 100.0 %
Test CRC 36411374
Copy CRC 36411374
Copy OK
No errors occurred
AccurateRip summary
Track 1 accurately ripped (confidence 1) [03C5C2E1] (AR v2)
Track 2 accurately ripped (confidence 1) [4AD2EA31] (AR v2)
Track 3 accurately ripped (confidence 1) [E0FD301C] (AR v2)
Track 4 accurately ripped (confidence 1) [267B0B58] (AR v2)
Track 5 accurately ripped (confidence 1) [7DE8C74F] (AR v2)
Track 6 accurately ripped (confidence 1) [817E651C] (AR v2)
Track 7 accurately ripped (confidence 1) [35D4B762] (AR v2)
Track 8 accurately ripped (confidence 1) [EBF87168] (AR v2)
Track 9 accurately ripped (confidence 1) [362D1A76] (AR v2)
Track 10 accurately ripped (confidence 1) [B6C9C0E3] (AR v2)
Track 11 accurately ripped (confidence 1) [2779C4C6] (AR v2)
Track 12 accurately ripped (confidence 1) [E9B9CC5F] (AR v2)
Track 13 accurately ripped (confidence 1) [2020C882] (AR v2)
Track 14 accurately ripped (confidence 1) [F08E12E8] (AR v2)
Track 15 accurately ripped (confidence 1) [580B5BD1] (AR v2)
Track 16 accurately ripped (confidence 1) [A1253221] (AR v2)
Track 17 accurately ripped (confidence 1) [DE4EC98C] (AR v2)
Track 18 accurately ripped (confidence 1) [23469A68] (AR v2)
Track 19 accurately ripped (confidence 1) [DAAE14A1] (AR v2)
Track 20 accurately ripped (confidence 1) [CBD90378] (AR v2)
Track 21 accurately ripped (confidence 1) [5D374C4F] (AR v2)
Track 22 accurately ripped (confidence 1) [6E222A78] (AR v2)
Track 23 accurately ripped (confidence 1) [BABC3819] (AR v2)
Track 24 accurately ripped (confidence 1) [11D59945] (AR v2)
Track 25 accurately ripped (confidence 1) [9183F489] (AR v2)
Track 26 accurately ripped (confidence 1) [B4AB904A] (AR v2)
All tracks accurately ripped
End of status report
==== Log checksum 8D5036F161C210489DEA2F3A446806AB730A32656B2B1F5CA060248066DF9AD9 ====
[teatrix.ru].t18872.torrent 
Торрент: Зарегистрирован [ 2016-03-18 12:10 ] · 2ABBA0FE4B83546715F235788AF126EACF6B9416

Скачать .torrent

Скачать

26 KB

Статус: проверено
Скачан: 0 раз
Размер: 317 MB
terms.php



Быстрый ответ

Имя:

      
Для отправки сообщений необходимо включить JavaScript
Показать сообщения:    

Текущее время: 04-Дек 19:22

Часовой пояс: UTC + 3


Вы можете начинать темы
Вы можете отвечать на сообщения
Вы не можете редактировать свои сообщения
Вы не можете удалять свои сообщения
Вы не можете голосовать в опросах
Вы не можете прикреплять файлы к сообщениям
Вы можете скачивать файлы