Кино Макгрегор - Аштанга-йога для начинающих / Yoga for Beginners with Kino MacGregor - Ashtanga Yoga [2014, йога, аштанга, DVDRip, ENG] (Видеоурок)


Статистика раздачи [Обновить пиров]
Размер:  2.2 GB   |    Зарегистрирован:  8 месяцев 17 дней   |    Скачан:  0 раз

Полного источника не было: Никогда

Личеров:  3  [  0 KB/s  ]   Подробная статистика пиров
 
   
 
 
 

[Цитировать]

Yoga for Beginners with Kino MacGregor - Ashtanga Yoga- Год выпуска: 2014
Страна: США
Жанр: йога, фитнес
Продолжительность: 02:20:55
Язык: Английский-Описание: В этом видео уроке по йоге для начинающих, Кино МакГрегор знакомит вас с практикой Аштанга йоги, в которую ее в свое время посвятили Шри К. Паттабхи Джойс и Р. Шарат Джойс в индийском городе Майсор (на сегодняшний день Шарат – самый продвинутый практик асан в мире). Как профессиональный учитель йоги Кино часто получает запросы на программы для начинающих от своих учеников. Представленные в видео сегменты, позволят вам создать отличный фундамент для практики йоги – все позиции вы будете осваивать в спокойном темпе.
Обучение построено таким образом, чтобы вы постигли йогу, начиная с самых ее основ. Некоторые ключевые позы будут показаны вам шаг за шагом, что поможет вам выучить их надлежащим образом.
Занятие 1: знакомит вас с так называемым приветствием Солнцу (sun salutation - Сурьянамаскар – цикл упражнений, позволяющий йогу ощутить целебную энергию Солнца); это поможет вам развивать силу и гибкость и освоить правильную технику дыхания.
Занятие 2: – это вторая стадия вашего развития и обучения; как только вы тщательно изучили Занятие 1, вы можете переходить наследующий уровень. В этом сегменте вы будете работать в более быстром темпе; постепенно вы будете осваивать новые позиции и развивать свои навыки в йоге.
Занятие 3: к этому занятию вы переходите тогда, когда вы достигли мастерства в Занятиях 1 и 2 и развили определенную выносливость. Этот сегмент соединяет воедино движения, дыхание и внутренний взор, что позволит вам сосредоточиться на духовных аспектах йоги и начать путь трансформации сознания, тела и души.
Занятие 4: направлено на развитие силы мышц корпуса. Корпус играет важную роль в освоении позиций йоги. Сильные, крепкие мышцы корпуса – залог гармонии и спокойствия сознания.
Занятие 5: направлено на обучение медитации и релаксации.
Интервью: Кино отвечает на вопросы своих учеников, которые интересуются и другими аспектами практики йоги, например, как правильно питаться или как усмирять свой гнев.-Сэмпл >>>-Качество: DVDRip
Формат: AVI
Видео: 720x400 (1.80:1), 25 fps, XviD build 65 ~1828 kbps avg, 0.25 bit/pixel
Аудио #1: 48 kHz, AC3 Dolby Digital, 2/0 (L,R) ch, ~192 kbps
Аудио #2: 48 kHz, AC3 Dolby Digital, 2/0 (L,R) ch, ~192 kbps - only music

Скриншоты видео

Скриншоты меню DVD

Дополнительно

In this Beginner's Yoga DVD, Kino MacGregor introduces you to the practice of Ashtanga Yoga taught to her by Sri K. Pattabhi Jois and R. Sharath Jois in Mysore, India. As a professional yoga teacher, the most frequent request Kino receives from her students is for a beginner's programme. These progressive segments will help you build a strong foundation of yoga as you learn the postures at the perfect pace.
The Tutorial is designed to teach you the very basics of yoga. Some key postures have been broken down on a step-by-step basis to help you learn them properly.
Practice 1 is designed to introduce you to the sun salutations that will help you develop strength and flexibility while introducing you to the fundamentals of the flow of breath.
Practices 2 is designed as the second stage of development once you have thoroughly learned Practice 1 and are ready to progress to the next level. This segment moves at a slightly faster tempo and integrates new poses to help you develop your practice further.
Practice 3 is designed for when you have mastered Routine 1 & 2 and have built some endurance. This flowing segment really connects movement, breath and gaze as you focus on the spiritual aspects of yoga and begin to experience the transformation of your mind, body and soul.
Practice 4 is designed to build strength from the core. The core plays a very important role in the postures of yoga. Having a strong core also trains the mind to be steady and calm.
Practice 5 is designed to teach you how to meditate and relax.
The Kino Interview answers the questions many students ask Kino about the complete journey of yoga such as what to eat or how to handle anger.
For more information on Kino please visit www.kinoyoga.com.

Отчет MI

General
Complete name : 05 Practice 3 (24 mins).avi
Format : AVI
Format/Info : Audio Video Interleave
File size : 387 MiB
Duration : 24mn 16s
Overall bit rate : 2 227 Kbps
Writing application : VirtualDubModRus 1.5.10.2 (build 2542/release)
Writing library : VirtualDubMod build 2542/release
Video
ID : 0
Format : MPEG-4 Visual
Format profile : Advanced Simple@L5
Format settings, BVOP : 1
Format settings, QPel : No
Format settings, GMC : No warppoints
Format settings, Matrix : Custom
Codec ID : XVID
Codec ID/Hint : XviD
Duration : 24mn 16s
Bit rate : 1 828 Kbps
Width : 720 pixels
Height : 400 pixels
Display aspect ratio : 16:9
Frame rate : 25.000 fps
Color space : YUV
Chroma subsampling : 4:2:0
Bit depth : 8 bits
Scan type : Progressive
Compression mode : Lossy
Bits/(Pixel*Frame) : 0.254
Stream size : 317 MiB (82%)
Writing library : XviD 65
Audio #1
ID : 1
Format : AC-3
Format/Info : Audio Coding 3
Mode extension : CM (complete main)
Format settings, Endianness : Big
Codec ID : 2000
Duration : 24mn 16s
Bit rate mode : Constant
Bit rate : 192 Kbps
Channel count : 2 channels
Channel positions : Front: L R
Sampling rate : 48.0 KHz
Bit depth : 16 bits
Compression mode : Lossy
Delay relative to video : 16ms
Stream size : 33.3 MiB (9%)
Alignment : Split accross interleaves
Interleave, duration : 40 ms (1.00 video frame)
Interleave, preload duration : 500 ms
Audio #2
ID : 2
Format : AC-3
Format/Info : Audio Coding 3
Mode extension : CM (complete main)
Format settings, Endianness : Big
Codec ID : 2000
Duration : 24mn 16s
Bit rate mode : Constant
Bit rate : 192 Kbps
Channel count : 2 channels
Channel positions : Front: L R
Sampling rate : 48.0 KHz
Bit depth : 16 bits
Compression mode : Lossy
Delay relative to video : 16ms
Stream size : 33.3 MiB (9%)
Alignment : Split accross interleaves
Interleave, duration : 40 ms (1.00 video frame)
Interleave, preload duration : 500 ms
Спасибо нашей щедрой волшебнице pantufla за DVD! Благодарю CanadaGirl за перевод аннотации!Релиз от группы
[teatrix.ru].t18873.torrent 
Торрент: Зарегистрирован [ 2016-03-18 12:10 ] · D5E5F00BA873BD06A1146209091B00F26F207999

Скачать .torrent

Скачать

12 KB

Статус: проверено
Скачан: 0 раз
Размер: 2.2 GB
terms.php



Быстрый ответ

Имя:

      
Для отправки сообщений необходимо включить JavaScript
Показать сообщения:    

Текущее время: 05-Дек 05:30

Часовой пояс: UTC + 3


Вы можете начинать темы
Вы можете отвечать на сообщения
Вы не можете редактировать свои сообщения
Вы не можете удалять свои сообщения
Вы не можете голосовать в опросах
Вы не можете прикреплять файлы к сообщениям
Вы можете скачивать файлы