Уроки пилатеса с Майклом Кингом [2013-2014, фитнес, пилатес, WEBRip, ENG] (Видеоурок)


Статистика раздачи [Обновить пиров]
Размер:  1.8 GB   |    Зарегистрирован:  8 месяцев 17 дней   |    Скачан:  1 раз

Полного источника не было: 4 месяца 4 дня

Личеров:  3  [  0 KB/s  ]   Подробная статистика пиров
 
   
 
 
 

[Цитировать]

Уроки пилатеса с Майклом Кингом
Страна: USA
Тематика: фитнес, пилатес
Тип раздаваемого материала: Видеоурок
Год выпуска: 2013-2014
Продолжительность: 01:00:58 + 00:52:08 + 00:47:39 + 00:56:18 + 00:57:02
Язык: Английский
Перевод: Отсутствует
Описание: 5 уроков по пилатесу с Майклом Кингом. Прекрасная пилатес-хореография, оригинальное музыкальное сопровождение, профессиональные комментарии.
Майкл Кинг — основатель «Майкл Кинг Пилатес», работает в Пилатес более 30 лет. Стал заниматься Пилатес будучи танцором в Лондонской школе современного танца. В 1982 году открыл свою собственную студию «Боди Контрол» в сотрудничестве с танцевальной студией «Пайнэпл» в районе Лондона Ковент Гарден. Через 2 года возглавил студию Пилатес в балетной труппе Хьюстона в Техасе, где проработал до 1990 года. Также Майкл работал в Нью-Йорке вместе с Каролой Триер и Романой Кризановской в оригинальной студии Пилатес.
К 1980 году Майкл приобрел репутацию известного презентера в области фитнеса и Пилатес. До 2008 года был основателем и директором Института Пилатес Великобритании, после чего основал свою компанию — «Майкл Кинг Пилатес».
Его обучающие программы находят широкое применение в 30 странах мира.
Майкл Кинг — личный тренер Тины Тернер, Мадонны, Джанет Джексон, а также Николь Кидман и множества других ярких артистов, певцов, актеров из звездного мира США. Именно он помогает многим людям быть всегда в форме и хорошем настроении.
MEDIA INFO

скрытый текст

Общее
Полное имя : E:\NEW\torrents\мюторрент\Michael King\Michael King - Mat Workout.mp4
Формат : MPEG-4
Профиль формата : Base Media
Идентификатор кодека : isom
Размер файла : 411 Мбайт
Продолжительность : 1 ч. 0 м.
Общий поток : 943 Кбит/сек
Дата кодирования : UTC 2013-11-27 00:38:00
Дата пометки : UTC 2013-11-27 00:38:00
Программа кодирования : Lavf53.24.2
Видео
Идентификатор : 1
Формат : AVC
Формат/Информация : Advanced Video Codec
Профиль формата : Main@L3.1
Параметр CABAC формата : Да
Параметр ReFrames формата : 4 кадра
Идентификатор кодека : avc1
Идентификатор кодека/Информация : Advanced Video Coding
Продолжительность : 1 ч. 0 м.
Битрейт : 838 Кбит/сек
Ширина : 848 пикселей
Высота : 476 пикселей
Соотношение сторон : 16:9
Режим частоты кадров : Постоянный
Частота кадров : 29,970 кадров/сек
Цветовое пространство : YUV
Субдискретизация насыщенности : 4:2:0
Битовая глубина : 8 бит
Тип развёртки : Прогрессивная
Бит/(Пиксели*Кадры) : 0.069
Размер потока : 365 Мбайт (89%)
Библиотека кодирования : x264 core 118 r2085 8a62835
Настройки программы : cabac=1 / ref=3 / deblock=1:0:0 / analyse=0x1:0x111 / me=hex / subme=5 / psy=1 / psy_rd=1.00:0.00 / mixed_ref=1 / me_range=16 / chroma_me=1 / trellis=1 / 8x8dct=0 / cqm=0 / deadzone=21,11 / fast_pskip=1 / chroma_qp_offset=0 / threads=36 / sliced_threads=0 / nr=0 / decimate=1 / interlaced=0 / bluray_compat=0 / constrained_intra=0 / bframes=3 / b_pyramid=2 / b_adapt=1 / b_bias=0 / direct=1 / weightb=1 / open_gop=0 / weightp=2 / keyint=60 / keyint_min=25 / scenecut=40 / intra_refresh=0 / rc_lookahead=40 / rc=2pass / mbtree=1 / bitrate=838 / ratetol=1.0 / qcomp=0.60 / qpmin=10 / qpmax=51 / qpstep=4 / cplxblur=20.0 / qblur=0.5 / ip_ratio=1.40 / aq=1:1.00
Язык : English
Дата кодирования : UTC 2013-11-27 00:38:00
Дата пометки : UTC 2013-11-27 00:38:00
Аудио
Идентификатор : 2
Формат : AAC
Формат/Информация : Advanced Audio Codec
Профиль формата : LC
Идентификатор кодека : 40
Продолжительность : 1 ч. 0 м.
Вид битрейта : Постоянный
Битрейт : 96,0 Кбит/сек
Каналы : 2 канала
Расположение каналов : Front: L R
Частота : 44,1 КГц
Метод сжатия : С потерями
Размер потока : 41,9 Мбайт (10%)
Язык : English
Дата кодирования : UTC 2013-11-27 00:38:00
Дата пометки : UTC 2013-11-27 00:38:00
Общее
Полное имя : E:\NEW\torrents\мюторрент\Michael King\Michael King - Mini Chiball.mp4
Формат : MPEG-4
Профиль формата : Base Media
Идентификатор кодека : isom
Размер файла : 351 Мбайт
Продолжительность : 52 м.
Общий поток : 940 Кбит/сек
Коллекция : michael_100511_paw_hd
Дата кодирования : UTC 2011-11-22 10:16:34
Дата пометки : UTC 2011-11-22 10:16:34
Программа кодирования : Lavf53.24.0
Видео
Идентификатор : 1
Формат : AVC
Формат/Информация : Advanced Video Codec
Профиль формата : Main@L3.0
Параметр CABAC формата : Да
Параметр ReFrames формата : 4 кадра
Идентификатор кодека : avc1
Идентификатор кодека/Информация : Advanced Video Coding
Продолжительность : 52 м.
Битрейт : 838 Кбит/сек
Ширина : 848 пикселей
Высота : 476 пикселей
Соотношение сторон : 16:9
Режим частоты кадров : Постоянный
Частота кадров : 24,000 кадра/сек
Цветовое пространство : YUV
Субдискретизация насыщенности : 4:2:0
Битовая глубина : 8 бит
Тип развёртки : Прогрессивная
Бит/(Пиксели*Кадры) : 0.087
Размер потока : 312 Мбайт (89%)
Библиотека кодирования : x264 core 118 r2085 8a62835
Настройки программы : cabac=1 / ref=3 / deblock=1:0:0 / analyse=0x1:0x111 / me=hex / subme=5 / psy=1 / psy_rd=1.00:0.00 / mixed_ref=1 / me_range=16 / chroma_me=1 / trellis=1 / 8x8dct=0 / cqm=0 / deadzone=21,11 / fast_pskip=1 / chroma_qp_offset=0 / threads=24 / sliced_threads=0 / nr=0 / decimate=1 / interlaced=0 / bluray_compat=0 / constrained_intra=0 / bframes=3 / b_pyramid=2 / b_adapt=1 / b_bias=0 / direct=1 / weightb=1 / open_gop=0 / weightp=2 / keyint=48 / keyint_min=25 / scenecut=40 / intra_refresh=0 / rc_lookahead=40 / rc=2pass / mbtree=1 / bitrate=838 / ratetol=1.0 / qcomp=0.60 / qpmin=10 / qpmax=51 / qpstep=4 / cplxblur=20.0 / qblur=0.5 / ip_ratio=1.40 / aq=1:1.00
Язык : English
Дата кодирования : UTC 2011-11-22 10:16:34
Дата пометки : UTC 2011-11-22 10:16:34
Аудио
Идентификатор : 2
Формат : AAC
Формат/Информация : Advanced Audio Codec
Профиль формата : LC
Идентификатор кодека : 40
Продолжительность : 52 м.
Вид битрейта : Постоянный
Битрейт : 96,0 Кбит/сек
Каналы : 2 канала
Расположение каналов : Front: L R
Частота : 44,1 КГц
Метод сжатия : С потерями
Размер потока : 35,8 Мбайт (10%)
Язык : English
Дата кодирования : UTC 2011-11-22 10:16:34
Дата пометки : UTC 2011-11-22 10:16:34
Общее
Полное имя : E:\NEW\torrents\мюторрент\Michael King\Michael King - Pilates Mat Flow.mp4
Формат : MPEG-4
Профиль формата : Base Media
Идентификатор кодека : isom
Размер файла : 321 Мбайт
Продолжительность : 47 м.
Общий поток : 943 Кбит/сек
Дата кодирования : UTC 2013-11-27 17:29:40
Дата пометки : UTC 2013-11-27 17:29:40
Программа кодирования : Lavf53.24.2
Видео
Идентификатор : 1
Формат : AVC
Формат/Информация : Advanced Video Codec
Профиль формата : Main@L3.1
Параметр CABAC формата : Да
Параметр ReFrames формата : 4 кадра
Идентификатор кодека : avc1
Идентификатор кодека/Информация : Advanced Video Coding
Продолжительность : 47 м.
Битрейт : 838 Кбит/сек
Ширина : 848 пикселей
Высота : 476 пикселей
Соотношение сторон : 16:9
Режим частоты кадров : Постоянный
Частота кадров : 29,970 кадров/сек
Цветовое пространство : YUV
Субдискретизация насыщенности : 4:2:0
Битовая глубина : 8 бит
Тип развёртки : Прогрессивная
Бит/(Пиксели*Кадры) : 0.069
Размер потока : 286 Мбайт (89%)
Библиотека кодирования : x264 core 118 r2085 8a62835
Настройки программы : cabac=1 / ref=3 / deblock=1:0:0 / analyse=0x1:0x111 / me=hex / subme=5 / psy=1 / psy_rd=1.00:0.00 / mixed_ref=1 / me_range=16 / chroma_me=1 / trellis=1 / 8x8dct=0 / cqm=0 / deadzone=21,11 / fast_pskip=1 / chroma_qp_offset=0 / threads=24 / sliced_threads=0 / nr=0 / decimate=1 / interlaced=0 / bluray_compat=0 / constrained_intra=0 / bframes=3 / b_pyramid=2 / b_adapt=1 / b_bias=0 / direct=1 / weightb=1 / open_gop=0 / weightp=2 / keyint=60 / keyint_min=25 / scenecut=40 / intra_refresh=0 / rc_lookahead=40 / rc=2pass / mbtree=1 / bitrate=838 / ratetol=1.0 / qcomp=0.60 / qpmin=10 / qpmax=51 / qpstep=4 / cplxblur=20.0 / qblur=0.5 / ip_ratio=1.40 / aq=1:1.00
Язык : English
Дата кодирования : UTC 2013-11-27 17:29:40
Дата пометки : UTC 2013-11-27 17:29:40
Аудио
Идентификатор : 2
Формат : AAC
Формат/Информация : Advanced Audio Codec
Профиль формата : LC
Идентификатор кодека : 40
Продолжительность : 47 м.
Вид битрейта : Постоянный
Битрейт : 96,0 Кбит/сек
Каналы : 2 канала
Расположение каналов : Front: L R
Частота : 44,1 КГц
Метод сжатия : С потерями
Размер потока : 32,7 Мбайт (10%)
Язык : English
Дата кодирования : UTC 2013-11-27 17:29:40
Дата пометки : UTC 2013-11-27 17:29:40
Общее
Полное имя : E:\NEW\torrents\мюторрент\Michael King\Michael King - Pilates Ring.mp4
Формат : MPEG-4
Профиль формата : Base Media
Идентификатор кодека : isom
Размер файла : 380 Мбайт
Продолжительность : 56 м.
Общий поток : 943 Кбит/сек
Коллекция : michael_050112_class945_hd
Дата кодирования : UTC 2012-07-04 01:00:54
Дата пометки : UTC 2012-07-04 01:00:54
Программа кодирования : Lavf53.24.0
Видео
Идентификатор : 1
Формат : AVC
Формат/Информация : Advanced Video Codec
Профиль формата : Main@L3.1
Параметр CABAC формата : Да
Параметр ReFrames формата : 4 кадра
Идентификатор кодека : avc1
Идентификатор кодека/Информация : Advanced Video Coding
Продолжительность : 56 м.
Битрейт : 838 Кбит/сек
Ширина : 848 пикселей
Высота : 476 пикселей
Соотношение сторон : 16:9
Режим частоты кадров : Постоянный
Частота кадров : 29,970 кадров/сек
Цветовое пространство : YUV
Субдискретизация насыщенности : 4:2:0
Битовая глубина : 8 бит
Тип развёртки : Прогрессивная
Бит/(Пиксели*Кадры) : 0.069
Размер потока : 337 Мбайт (89%)
Библиотека кодирования : x264 core 118 r2085 8a62835
Настройки программы : cabac=1 / ref=3 / deblock=1:0:0 / analyse=0x1:0x111 / me=hex / subme=5 / psy=1 / psy_rd=1.00:0.00 / mixed_ref=1 / me_range=16 / chroma_me=1 / trellis=1 / 8x8dct=0 / cqm=0 / deadzone=21,11 / fast_pskip=1 / chroma_qp_offset=0 / threads=24 / sliced_threads=0 / nr=0 / decimate=1 / interlaced=0 / bluray_compat=0 / constrained_intra=0 / bframes=3 / b_pyramid=2 / b_adapt=1 / b_bias=0 / direct=1 / weightb=1 / open_gop=0 / weightp=2 / keyint=60 / keyint_min=25 / scenecut=40 / intra_refresh=0 / rc_lookahead=40 / rc=2pass / mbtree=1 / bitrate=838 / ratetol=1.0 / qcomp=0.60 / qpmin=10 / qpmax=51 / qpstep=4 / cplxblur=20.0 / qblur=0.5 / ip_ratio=1.40 / aq=1:1.00
Язык : English
Дата кодирования : UTC 2012-07-04 01:00:54
Дата пометки : UTC 2012-07-04 01:00:54
Аудио
Идентификатор : 2
Формат : AAC
Формат/Информация : Advanced Audio Codec
Профиль формата : LC
Идентификатор кодека : 40
Продолжительность : 56 м.
Вид битрейта : Постоянный
Битрейт : 96,0 Кбит/сек
Каналы : 2 канала
Расположение каналов : Front: L R
Частота : 44,1 КГц
Метод сжатия : С потерями
Размер потока : 38,7 Мбайт (10%)
Язык : English
Дата кодирования : UTC 2012-07-04 01:00:54
Дата пометки : UTC 2012-07-04 01:00:54
Общее
Полное имя : E:\NEW\torrents\мюторрент\Michael King\Michael King - Please Take A Seat.mp4
Формат : MPEG-4
Профиль формата : Base Media
Идентификатор кодека : isom
Размер файла : 384 Мбайт
Продолжительность : 57 м.
Общий поток : 942 Кбит/сек
Дата кодирования : UTC 2013-11-26 18:47:05
Дата пометки : UTC 2013-11-26 18:47:05
Программа кодирования : Lavf53.24.2
Видео
Идентификатор : 1
Формат : AVC
Формат/Информация : Advanced Video Codec
Профиль формата : Main@L3.1
Параметр CABAC формата : Да
Параметр ReFrames формата : 4 кадра
Идентификатор кодека : avc1
Идентификатор кодека/Информация : Advanced Video Coding
Продолжительность : 57 м.
Битрейт : 838 Кбит/сек
Ширина : 848 пикселей
Высота : 476 пикселей
Соотношение сторон : 16:9
Режим частоты кадров : Постоянный
Частота кадров : 29,970 кадров/сек
Цветовое пространство : YUV
Субдискретизация насыщенности : 4:2:0
Битовая глубина : 8 бит
Тип развёртки : Прогрессивная
Бит/(Пиксели*Кадры) : 0.069
Размер потока : 342 Мбайт (89%)
Библиотека кодирования : x264 core 118 r2085 8a62835
Настройки программы : cabac=1 / ref=3 / deblock=1:0:0 / analyse=0x1:0x111 / me=hex / subme=5 / psy=1 / psy_rd=1.00:0.00 / mixed_ref=1 / me_range=16 / chroma_me=1 / trellis=1 / 8x8dct=0 / cqm=0 / deadzone=21,11 / fast_pskip=1 / chroma_qp_offset=0 / threads=24 / sliced_threads=0 / nr=0 / decimate=1 / interlaced=0 / bluray_compat=0 / constrained_intra=0 / bframes=3 / b_pyramid=2 / b_adapt=1 / b_bias=0 / direct=1 / weightb=1 / open_gop=0 / weightp=2 / keyint=60 / keyint_min=25 / scenecut=40 / intra_refresh=0 / rc_lookahead=40 / rc=2pass / mbtree=1 / bitrate=838 / ratetol=1.0 / qcomp=0.60 / qpmin=10 / qpmax=51 / qpstep=4 / cplxblur=20.0 / qblur=0.5 / ip_ratio=1.40 / aq=1:1.00
Язык : English
Дата кодирования : UTC 2013-11-26 18:47:05
Дата пометки : UTC 2013-11-26 18:47:05
Аудио
Идентификатор : 2
Формат : AAC
Формат/Информация : Advanced Audio Codec
Профиль формата : LC
Идентификатор кодека : 40
Продолжительность : 57 м.
Вид битрейта : Постоянный
Битрейт : 96,0 Кбит/сек
Каналы : 2 канала
Расположение каналов : Front: L R
Частота : 44,1 КГц
Метод сжатия : С потерями
Размер потока : 39,2 Мбайт (10%)
Язык : English
Дата кодирования : UTC 2013-11-26 18:47:05
Дата пометки : UTC 2013-11-26 18:47:05
Качество: WEBRip
Формат: MP4
Видео кодек: H.264
Аудио кодек: AAC
Видео: MPEG4 Video (H264) 848x476 (16:9) 29.97fps
Аудио: AAC 44100Hz stereo 95kbps

Скриншоты

[teatrix.ru].t18875.torrent 
Торрент: Зарегистрирован [ 2016-03-18 12:10 ] · 9652DD634DF8A2ACD5081FF02712019179CC1E64

Скачать .torrent

Скачать

19 KB

Статус: проверено
Скачан: 1 раз
Размер: 1.8 GB
terms.php



Быстрый ответ

Имя:

      
Для отправки сообщений необходимо включить JavaScript
Показать сообщения:    

Текущее время: 05-Дек 05:23

Часовой пояс: UTC + 3


Вы можете начинать темы
Вы можете отвечать на сообщения
Вы не можете редактировать свои сообщения
Вы не можете удалять свои сообщения
Вы не можете голосовать в опросах
Вы не можете прикреплять файлы к сообщениям
Вы можете скачивать файлы