Кабульский оркестр в изгнании / L'ensemble Kaboul en exil (Франк Шнайдер / Franck Schneider) [2002, документальный, этническая музыка, DVB]


Статистика раздачи [Обновить пиров]
Размер:  1.73 GB   |    Зарегистрирован:  8 месяцев 23 дня   |    Скачан:  0 раз

Полного источника не было: Никогда

Личеров:  3  [  0 KB/s  ]   Подробная статистика пиров
 
   
 
 
 

[Цитировать]

Кабульский оркестр в изгнании
L'ensemble Kaboul en exil- Дата/Год выпуска: 2002
Страна: Швейцария, Франция
Жанр: документальный, этническая музыка
Продолжительность: 00:53:58
Перевод: Субтитры
Русские субтитры: есть
Формат субтитров: hardsub (неотключаемые)
Доп. информация о субтитрах: перевод Е. Маньен, Éclair Group
Оригинальная аудиодорожка: французский
Режиссер: Франк Шнайдер / Franck Schneider
Телеканал: TV5MONDEОписание: Факты - упрямая вещь. Но взгляд на них не всегда может быть черно-белым. Кинокамера бесстрастно фиксирует реальность. Режиссер выстраивает из разрозненных кадров сюжет. Это - документальное кино. Кино-исследование. Кино-наблюдение. Кино-переосмысление.
Кабульский оркестр вот уже почти 20 лет поет в изгнании, вдали от соотечественников, обреченных на молчание. Несмотря на это они поют о любви к Родине.
Доп. информация: DVB-S. Во время нефранцузской речи на экране дополнительно вшитые французские субтитры.
[box]http://www.imdb.com/title/tt2461694/[/box]
Сэмпл: http://multi-up.com/985236
качество: DVB
формат: MKV
Видео: MPEG Video 2, 704x576@1024x576 (16:9), 25 fps, ~4314 kbps avg, 0.426 bit/pixel
Аудио: Французский (MPEG Audio 2, 2 ch, 48 kHz, ~192.00 kbps avg)

MediaInfo

Общее
Уникальный идентификатор : 216385947739214851293452134904411209515 (0xA2CA6AE9C5472CB590C9CA3981503F2B)
Полное имя : E:\My Torrents 2\[apreder]L'ensemble_Kaboul_en_exil(2002)DVB.mkv
Формат : Matroska
Версия формата : Version 2
Размер файла : 1,73 Гбайт
Продолжительность : 53 м.
Режим общего битрейта : Переменный
Общий поток : 4597 Кбит/сек
Дата кодирования : UTC 2014-07-09 13:00:01
Программа кодирования : mkvmerge v7.0.0 ('Where We Going') 64bit built on Jun 9 2014 15:16:27
Библиотека кодирования : libebml v1.3.0 + libmatroska v1.4.1
Видео
Идентификатор : 1
Формат : MPEG Video
Версия формата : Version 2
Профиль формата : Main@Main
Параметр BVOP формата : Нет
Параметр матрицы формата : Выборочная
Идентификатор кодека : V_MPEG2
Идентификатор кодека/Информация : MPEG 1 or 2 Video
Продолжительность : 53 м.
Вид битрейта : Переменный
Битрейт : 4314 Кбит/сек
Максимальный битрейт : 7497 Кбит/сек
Ширина : 704 пикселя
Высота : 576 пикселей
Соотношение сторон : 16:9
Режим частоты кадров : Постоянный
Частота кадров : 25,000 кадров/сек
Стандарт вещания : PAL
Цветовое пространство : YUV
Субдискретизация насыщенности : 4:2:0
Битовая глубина : 8 бит
Тип развёртки : Прогрессивная
Порядок развёртки : Верхнее поле первое
Метод сжатия : С потерями
Бит/(Пиксели*Кадры) : 0.426
Временной код первого кадра : 00:00:00:00
Оригинал временного кода : Group of pictures header
Размер потока : 1,63 Гбайт (94%)
Default : Да
Forced : Нет
Аудио
Идентификатор : 2
Формат : MPEG Audio
Версия формата : Version 1
Профиль формата : Layer 2
Идентификатор кодека : A_MPEG/L2
Идентификатор кодека/Подсказка : MP2
Продолжительность : 53 м.
Вид битрейта : Постоянный
Битрейт : 192 Кбит/сек
Каналы : 2 канала
Частота : 48,0 КГц
Метод сжатия : С потерями
Размер потока : 74,1 Мбайт (4%)
Язык : French
Default : Да
Forced : Нет

Скриншоты


Резервные скриншоты


-[1'511]
[teatrix.ru].t18876.torrent 
Торрент: Зарегистрирован [ 2016-03-18 12:10 ] · A5F3655239E5D43DE5642130F1D504A60B5913FB

Скачать .torrent

Скачать

18 KB

Статус: проверено
Скачан: 0 раз
Размер: 1.73 GB
terms.php



Быстрый ответ

Имя:

      
Для отправки сообщений необходимо включить JavaScript
Показать сообщения:    

Текущее время: 11-Дек 05:21

Часовой пояс: UTC + 3


Вы можете начинать темы
Вы можете отвечать на сообщения
Вы не можете редактировать свои сообщения
Вы не можете удалять свои сообщения
Вы не можете голосовать в опросах
Вы не можете прикреплять файлы к сообщениям
Вы можете скачивать файлы