Говорят кинематографисты мира - III Международный московский кинофестиваль 1963 года (Ксения Маринина) [1964, документальный, кинематограф, DVB]


Статистика раздачи [Обновить пиров]
Размер:  1.24 GB   |    Зарегистрирован:  8 месяцев 23 дня   |    Скачан:  1 раз

Полного источника не было: 1 месяц 26 дней

Личеров:  4  [  0 KB/s  ]   Подробная статистика пиров
 
   
 
 
 

[Цитировать]

Говорят кинематографисты мира
III Международный московский кинофестиваль 1963 года- Дата/Год выпуска: 1964
Страна: СССР
Жанр: документальный, кинематограф
Продолжительность: 01:04:37
Перевод: Не требуется
Русские субтитры: нет
Режиссер: Ксения Маринина
Телеканал: НостальгияВ ролях: Ежи Кавалерович, Рене Клеман, Нанни Лой, Федерико Феллини, Лукино Висконти, Симона Синьоре, Ив Монтан, Армин Мюллер-Шталь, Нина Хиббин, Эмиль Петров, Алекос Александракис, Алики Георгули, Сьюзен Страсберг, Пьер Этекс
Текст читают: Валентина Леонтьева, Игорь Кириллов, Юрий (Георгий) Ярцев
Описание: Фильм-интервью с деятелями кино разных стран, принимающими участие в III Международном московском кинофестивале в 1963 году: французским кинорежиссером Рене Клеманом, американской актрисой Сьюзен Страсберг, итальянским кинорежиссером Нанни Лоем, польским кинорежиссером Ежи Кавалеровичем и другими. Использованы фрагменты кинолент "Битва на рельсах", "Вздыхатель", "Самая красивая", "Путь в высшее общество". (анонс канала "Ностальгия")
Доп. информация: DVB-S
Сэмпл: http://multi-up.com/985481
качество: DVB
формат: MKV
Видео: MPEG Video 2, 720x576@768x576 (4:3), 25 fps, ~2498 kbps avg, 0.241 bit/pixel
Аудио: MPEG Audio 2, 2 ch, 48 kHz, ~192.00 kbps avg

MediaInfo

Общее
Уникальный идентификатор : 216792672466636709992508610125631481586 (0xA318BFFD8E98737095A01FF36C0E66F2)
Полное имя : E:\My Torrents 2\[apreder]Govoryat_kinematografisty(1964)DVB.mkv
Формат : Matroska
Версия формата : Version 2
Размер файла : 1,24 Гбайт
Продолжительность : 1 ч. 4 м.
Режим общего битрейта : Переменный
Общий поток : 2745 Кбит/сек
Дата кодирования : UTC 2014-07-10 15:53:09
Программа кодирования : mkvmerge v7.0.0 ('Where We Going') 64bit built on Jun 9 2014 15:16:27
Библиотека кодирования : libebml v1.3.0 + libmatroska v1.4.1
Видео
Идентификатор : 1
Формат : MPEG Video
Версия формата : Version 2
Профиль формата : Main@Main
Параметр BVOP формата : Нет
Параметр матрицы формата : Выборочная
Идентификатор кодека : V_MPEG2
Идентификатор кодека/Информация : MPEG 1 or 2 Video
Продолжительность : 1 ч. 4 м.
Вид битрейта : Переменный
Битрейт : 2498 Кбит/сек
Максимальный битрейт : 5149 Кбит/сек
Ширина : 720 пикселей
Высота : 576 пикселей
Соотношение сторон : 4:3
Режим частоты кадров : Постоянный
Частота кадров : 25,000 кадров/сек
Стандарт вещания : PAL
Цветовое пространство : YUV
Субдискретизация насыщенности : 4:2:0
Битовая глубина : 8 бит
Тип развёртки : Чересстрочная
Порядок развёртки : Верхнее поле первое
Метод сжатия : С потерями
Бит/(Пиксели*Кадры) : 0.241
Временной код первого кадра : 00:00:00:00
Оригинал временного кода : Group of pictures header
Размер потока : 1,13 Гбайт (91%)
Default : Да
Forced : Нет
Аудио
Идентификатор : 2
Формат : MPEG Audio
Версия формата : Version 1
Профиль формата : Layer 2
Идентификатор кодека : A_MPEG/L2
Идентификатор кодека/Подсказка : MP2
Продолжительность : 1 ч. 4 м.
Вид битрейта : Постоянный
Битрейт : 192 Кбит/сек
Каналы : 2 канала
Частота : 48,0 КГц
Метод сжатия : С потерями
Размер потока : 88,8 Мбайт (7%)
Язык : Russian
Default : Да
Forced : Нет

Скриншоты

Резервные скриншоты

-[1'515]
[teatrix.ru].t18877.torrent 
Торрент: Зарегистрирован [ 2016-03-18 12:12 ] · ADFBC44E05B206A8491BB6A978D189E3E6A70BB4

Скачать .torrent

Скачать

13 KB

Статус: проверено
Скачан: 1 раз
Размер: 1.24 GB
terms.php



Показать сообщения:    

Текущее время: 10-Дек 17:47

Часовой пояс: UTC + 3


Вы не можете начинать темы
Вы не можете отвечать на сообщения
Вы не можете редактировать свои сообщения
Вы не можете удалять свои сообщения
Вы не можете голосовать в опросах
Вы не можете прикреплять файлы к сообщениям
Вы можете скачивать файлы