(Classical) Erno Dohnanyi - Piano Quintets; Serenade for String Trio - The Schubert Ensemble of London - 2012, FLAC (image+.cue) lossless


 

[Цитировать]

Ernő Dohnányi - Piano Quintets; Serenade for String Trio - The Schubert Ensemble of London
Жанр: Classical
Страна-производитель диска: UK
Год издания диска: 2012
Издатель (лейбл): Hyperion
Номер по каталогу: CDH55412
Дата записи: 1995
Аудиокодек: FLAC
Тип рипа: image+.cue
Битрейт аудио: lossless
Продолжительность: 75:49
Источник: собственный рип
Наличие сканов в содержимом раздачи: да
Треклист:
Ernő Dohnányi (1877-1960)
[1]-[5] Piano Quintet No.1 in C minor, Op.1 (1895)
[5]-[9] Serenade for String Trio in C major, Op.10 (1902)
[10]-[12] Piano Quintet No.2 in E flat major, Op.26 (1914)
Исполнители:
The Schubert Ensemble of London
Mayumi Seiler violin
Ralph de Souza violin
Douglas Paterson viola
Jane Salmon cello
William Howard piano

Лог создания рипа

Exact Audio Copy V1.0 beta 3 from 29. August 2011
EAC extraction logfile from 1. July 2014, 2:12
The Schubert Ensemble of London / Dohnanyi - Piano Quintets & Serenade
Used drive : HL-DT-STDVDRAM GSA-4083N Adapter: 1 ID: 0
Read mode : Secure
Utilize accurate stream : Yes
Defeat audio cache : Yes
Make use of C2 pointers : No
Read offset correction : 667
Overread into Lead-In and Lead-Out : No
Fill up missing offset samples with silence : Yes
Delete leading and trailing silent blocks : No
Null samples used in CRC calculations : Yes
Used interface : Native Win32 interface for Win NT & 2000
Used output format : User Defined Encoder
Selected bitrate : 896 kBit/s
Quality : High
Add ID3 tag : No
Command line compressor : C:\Program Files\Exact Audio Copy\Flac\flac.exe
Additional command line options : -V -8 %source%
TOC of the extracted CD
Track | Start | Length | Start sector | End sector
---------------------------------------------------------
1 | 0:00.00 | 8:23.45 | 0 | 37769
2 | 8:23.45 | 5:14.50 | 37770 | 61369
3 | 13:38.20 | 7:53.42 | 61370 | 96886
4 | 21:31.62 | 8:02.68 | 96887 | 133104
5 | 29:34.55 | 2:06.02 | 133105 | 142556
6 | 31:40.57 | 4:05.13 | 142557 | 160944
7 | 35:45.70 | 4:36.67 | 160945 | 181711
8 | 40:22.62 | 6:19.63 | 181712 | 210199
9 | 46:42.50 | 4:27.25 | 210200 | 230249
10 | 51:10.00 | 9:22.70 | 230250 | 272469
11 | 60:32.70 | 5:14.10 | 272470 | 296029
12 | 65:47.05 | 10:02.26 | 296030 | 341205
Range status and errors
Selected range
Filename J:\New Music\CDH55412 - Dohnanyi - Piano Quintets\Dohnanyi - Piano Quintets & Serenade.wav
Peak level 95.1 %
Extraction speed 3.6 X
Range quality 99.9 %
Test CRC FF48728F
Copy CRC FF48728F
Copy OK
No errors occurred
AccurateRip summary
Track 1 cannot be verified as accurate (confidence 1) [B5A508F8], AccurateRip returned [F50D8606] (AR v2)
Track 2 cannot be verified as accurate (confidence 1) [05D8B097], AccurateRip returned [D17C7633] (AR v2)
Track 3 cannot be verified as accurate (confidence 1) [86344A72], AccurateRip returned [B60BD7ED] (AR v2)
Track 4 cannot be verified as accurate (confidence 1) [8F115892], AccurateRip returned [2704D3E8] (AR v2)
Track 5 cannot be verified as accurate (confidence 1) [E040F38C], AccurateRip returned [ED455025] (AR v2)
Track 6 cannot be verified as accurate (confidence 1) [4181060A], AccurateRip returned [CD011606] (AR v2)
Track 7 cannot be verified as accurate (confidence 1) [54FDC716], AccurateRip returned [C0EBA8AF] (AR v2)
Track 8 cannot be verified as accurate (confidence 1) [11A5394C], AccurateRip returned [DAC675CE] (AR v2)
Track 9 cannot be verified as accurate (confidence 1) [C7E6952F], AccurateRip returned [91475374] (AR v2)
Track 10 cannot be verified as accurate (confidence 1) [A53DD4A4], AccurateRip returned [455B3400] (AR v2)
Track 11 cannot be verified as accurate (confidence 1) [3952AB31], AccurateRip returned [21DFCA3D] (AR v2)
Track 12 cannot be verified as accurate (confidence 1) [A814436B], AccurateRip returned [244AF666] (AR v2)
No tracks could be verified as accurate
You may have a different pressing from the one(s) in the database
End of status report
==== Log checksum 7FEB7901F6095F51664B77C56EA8DE9D6FFA5919C59160761C62592A3C8CBE95 ====



Показать сообщения:    

Текущее время: 08-Дек 09:06

Часовой пояс: UTC + 3


Вы не можете начинать темы
Вы не можете отвечать на сообщения
Вы не можете редактировать свои сообщения
Вы не можете удалять свои сообщения
Вы не можете голосовать в опросах
Вы не можете прикреплять файлы к сообщениям
Вы не можете скачивать файлы